.
Авторизация | Регистрация
Хочешь лучшие торренты? Добавь свой email!
Добавить

Торрент скачать бесплатно

» » Остров (2016) SATRip (Серия 1-17) (обновляемая) торрент скачать бесплатно




    Остров (2016) SATRip (Серия 1-17) (обновляемая) торрент скачать бесплатно

    Опубликовал: Админ | Дата: 13-03-2016, 04:12 | Просмотров: 145

    Производство: Россия
    Жанр: Комедия
    Режиссер: Артем Насыбулин, Михаил Старчак, Александр Наумов

    Актеры
    Янина Студилина, Денис Косяков, Ирина Вилкова, Кирилл Мелехов, Анастасия Асеева, Анфиса Вистингаузен, Григорий Калинин, Евгений Кулик и др.

    Описание

    Съемочная группа прибывает на необитаемый остров для создания нового реалити-шоу Остров. Самое интересное в это истории, что об этом Европарламент ничего не знал. По замыслу продюсеров, участники должны бороться друг с другом, с самими собой и с условиями дикой природы, в которые они попадут. Они будут выполнять задания, накапливая деньги в общий банк и зарабатывая рейтинг в глазах телезрителей.
    Однако все пойдет против плана, когда яхта со съемочной группой неожиданно взорвется. Приняв это за сигнал к старту шоу, участники вступают в игру, даже не догадываясь, что они в западне. Их никто не будет снимать и привычно искать. Связь с цивилизацией отсутствует. В голове только одно — победить в шоу, которого нет.

    Продолжительность: ~00: 24: 00
    Качество видео: SATRip
    Видео: Xvid, 720x400, ~1496 Kbps
    Аудио: MP3, 2 ch, 192Kbps
    Код:

    Общее
    Полное имя : D:Остров 2016 SATRipСерия 16.avi
    Формат : AVI
    Формат/Информация : Audio Video Interleave
    Размер файла : 263 Мбайт
    Продолжительность : 21 м.
    Общий поток : 1698 Кбит/сек
    Программа кодирования : VirtualDubMod 1.5.10.3 (build 2550/release)
    Библиотека кодирования : VirtualDubMod build 2550/release
    Видео
    Идентификатор : 0
    Формат : MPEG-4 Visual
    Профиль формата : Advanced Simple@L5
    Параметр BVOP формата : 1
    Параметр QPel формата : Нет
    Параметр GMC формата : Без точки перехода
    Параметр матрицы формата : Default (H.263)
    Идентификатор кодека : XVID
    Идентификатор кодека/Подсказка : XviD
    Продолжительность : 21 м.
    Битрейт : 1496 Кбит/сек
    Ширина : 720 пикселей
    Высота : 400 пикселей
    Соотношение сторон : 16:9
    Частота кадров : 25, 000 кадров/сек
    Цветовое пространство : YUV
    Субдискретизация насыщенности : 4:2:0
    Битовая глубина : 8 бит
    Тип развёртки : Прогрессивная
    Метод сжатия : С потерями
    Бит/(Пиксели*Кадры) : 0.208
    Размер потока : 232 Мбайт (88%)
    Библиотека кодирования : XviD 67
    Аудио
    Идентификатор : 1
    Формат : MPEG Audio
    Версия формата : Version 1
    Профиль формата : Layer 3
    Режим : Joint stereo
    Расширение режима : MS Stereo
    Идентификатор кодека : 55
    Идентификатор кодека/Подсказка : MP3
    Продолжительность : 21 м.
    Вид битрейта : Постоянный
    Битрейт : 192 Кбит/сек
    Каналы : 2 канала
    Частота : 48, 0 КГц
    Метод сжатия : С потерями
    Размер потока : 29, 7 Мбайт (11%)
    Выравнивание : Разделение по промежуткам
    Продолжительность промежутка : 40 мс. (1, 00 видеокадр)
    Время предзагрузки промежутка : 500 мс.
    Библиотека кодирования : LAMEUwdU4I%iUфЅSі[


    Скриншоты для ознакомления




    Онлайн видео Остров (2016) SATRip (Серия 1



    Остров (2016) SATRip (Серия 1-17) (обновляемая)
    загрузка...
    Рейтинг →
     (голосов: 1, оценка 5/5, голосовать можно 1 раз )

    Другие торренты по теме:

  • Земля. Территория загадок. Остров Буян и атомная бомба Гитлера (2014) SATRip скачать через торрент бесплатно
  • Остров (2013) SATRip
  • В теме. Остров свободы (2015) SATRip скачать через торрент бесплатно
  • Остров (2016) SATRip (сезон 1, серия 1 из 24) (обновляемая)
  • Одинокий остров / Uksik saar / Lonely Island (2012) SATRip


    • Комментарии (0):

      Информация

      Информация

        Посетители, находящиеся в группе Гости, не могут оставлять комментарии в данной новости.

        ↓ Меню




        ↓ Опрос

        Вы добавили сайт в закладки?
        Да
        Нет


        Top 10 за месяц (Фильмы)