.
Авторизация | Регистрация
Хочешь лучшие торренты? Добавь свой email!
Добавить

Торрент скачать бесплатно

» » Герои Шипки (1954) DVDRip [H.264] торрент скачать бесплатно




    Герои Шипки (1954) DVDRip [H.264] торрент скачать бесплатно

    Опубликовал: Админ | Дата: 11-03-2016, 04:00 | Просмотров: 70

    Производство: СССР
    Жанр: Драма, Военный
    Режиссер: Сергей Васильев

    Актеры
    Иван Переверзев, Виктор Авдюшко, Георгий Юматов, Константин Сорокин, Петко Карлуковски, Апостол Карамитев, Анатолий Алексеев, Евгений Самойлов, Александр Смирнов, Николай Массалитинов

    Описание

    Пять веков славянские народы Балканского полуострова находились под игом османских турок. В 1877 году Россия объявляет войну Турции. Под руководством талантливых генералов в суровых природных условиях русские и болгарские воины одерживают ряд крупных побед. Разбив врага под Плевной, русско-болгарская армия движется на Стамбул.
    И хотя Россию под нажимом западных государств, боящихся ее усиления, вынуждают прекратить войну, благородная цель достигнута — болгарские народы освободились от турецкого ига.

    Продолжительность: 01: 56: 34
    Качество видео: DVDRip
    Видео: AVC/H.264, 700x576@747x576 (1.3: 1), ~2500 kbps, 25 fps
    Аудио: AC3, 2 ch, 192 Kbps, 48.0 KHz, CBR
    Код:

    General
    Unique ID : 241858130627536502952199678232843675630 (0xB5F42E7DCA57D404862B69A253A667EE)
    Complete name : G:Download_GGeroi_Shipki_DVD9Rip_1954.mkv
    Format : Matroska
    Format version : Version 4/Version 2
    File size : 2.19 GiB
    Duration : 1h 56mn
    Overall bit rate : 2 694 Kbps
    Encoded date : UTC 2013-04-01 21:54:33
    Writing application : mkvmerge v6.1.0 (\'Old Devil\') built on Mar 2 2013 14:32:37
    Writing library : libebml v1.3.0 + libmatroska v1.4.0
    Video
    ID : 1
    Format : AVC
    Format/Info : Advanced Video Codec
    Format profile :High@L4.1
    Format settings, CABAC : Yes
    Format settings, ReFrames : 6 frames
    Codec ID : V_MPEG4/ISO/AVC
    Duration : 1h 56mn
    Bit rate : 2 500 Kbps
    Width : 700 pixels
    Height : 576 pixels
    Display aspect ratio : 1.295
    Original display aspect ratio : 1.296
    Frame rate mode : Constant
    Frame rate : 25.000 fps
    Color space : YUV
    Chroma subsampling : 4:2:0
    Bit depth : 8 bits
    Scan type : Progressive
    Bits/(Pixel*Frame) : 0.248
    Stream size : 1.99 GiB (91%)
    Writing library : x264 core 130 r2273 b3065e6
    Encoding settings : cabac=1/ref=6/deblock=1:-1:-1/analyse=0x3:0x133/me=umh/subme=9/psy=1/psy_rd=1.00:0.00/mixed_ref=1/me_range=36/chroma_me=1/trellis=2/8x8dct=1/cqm=0/deadzone=21, 11/fast_pskip=1/chroma_qp_offset=-2/threads=3/lookahead_threads=1/sliced_threads=0/nr=0/decimate=1/interlaced=0/bluray_compat=0/constrained_intra=0/bframes=10/b_pyramid=2/b_adapt=2/b_bias=0/direct=3/weightb=1/open_gop=0/weightp=2/keyint=250/keyint_min=25/scenecut=40/intra_refresh=0/rc_lookahead=60/rc=2pass/mbtree=1/bitrate=2500/ratetol=1.0/qcomp=0.60/qpmin=0/qpmax=69/qpstep=4/cplxblur=20.0/qblur=0.5/ip_ratio=1.40/aq=1:1.00
    Language : English
    Default : Yes
    Forced : No
    Audio
    ID : 2
    Format : AC-3
    Format/Info : Audio Coding 3
    Mode extension : CM (complete main)
    Format settings, Endianness : Big
    Codec ID : A_AC3
    Duration : 1h 56mn
    Bit rate mode : Constant
    Bit rate : 192 Kbps
    Channel(s) : 2 channels
    Channel positions : Front: L R
    Sampling rate : 48.0 KHz
    Compression mode : Lossy
    Stream size : 160 MiB (7%)
    Language : Russian
    Default : Yes
    Forced : No


    Скриншоты для ознакомления




    Герои Шипки (1954) DVDRip [H.264]
    загрузка...
    Рейтинг →
     (голосов: 1, оценка 3/5, голосовать можно 1 раз )

    Другие торренты по теме:

  • Discovery: Герои среди нас / Heroes Hardcore (2013) HDTVRip (Серия 2)
  • Герои ментовских войн-8 (2014) SATRip
  • Последние герои высадки в Нормандии / D-Day The Last Heroes (2013) HDTVRip [2 серии из 2] [H.264 / 720p-LQ] скачать через торрент бесплатно
  • Red Orchestra 2: Heroes of Stalingrad / Red Orchestra 2: Герои Сталинграда (2011) [Ru] [OS X WineSkin] скачать через торрент бесплатно
  • Час истины. Герои Смутного времени (2007-2013) SATRip / WEBRip [5 выпусков] скачать через торрент бесплатно
  • Герои интернета. Выпуск 1 (2014.11.29) SATRip
  • Герои интернета. Выпуск 2 (2014.12.06) SATRip скачать через торрент бесплатно
  • Герои интернета. Выпуск 3 (2014.12.13) SATRip


    • Комментарии (0):

      Информация

      Информация

        Посетители, находящиеся в группе Гости, не могут оставлять комментарии в данной новости.

        ↓ Меню




        ↓ Опрос

        Вы добавили сайт в закладки?
        Да
        Нет


        Top 10 за месяц (Фильмы)