.
Авторизация | Регистрация
Хочешь лучшие торренты? Добавь свой email!
Добавить

Торрент скачать бесплатно

» » Брат 2 (2000) WEB-DL [H.264 / 1080p-LQ] торрент скачать бесплатно




    Брат 2 (2000) WEB-DL [H.264 / 1080p-LQ] торрент скачать бесплатно

    Опубликовал: Админ | Дата: 10-03-2016, 04:00 | Просмотров: 60

    Производство: Россия, СТВ
    Жанр: Боевик, Криминал, Драма
    Режиссер: Алексей Балабанов

    Актеры
    Сергей Бодров мл., Виктор Сухоруков, Сергей Маковецкий, Ирина Салтыкова, Александр Дьяченко, Константин Желдин, Гэри Хьюстон, Рэй Толер, Лиза Джеффри, Иван Демидов, Олег Васильков, Валдис Пельш, Егор Пазенко, Дарья Юргенс (Лесникова), Александр Робак, Александр Наумов, Леонид Якубович, Ирина Домнинская, Вадим Вильский

    Описание

    Участвуя в программе на телевидении, Данила Багров встречает своих друзей по Чечне. Белая ворона, сказал кто то из толпы, к чему не понятно. Одного из них внезапно убивают. Данила знает, что у того были неприятности из-за брата-хоккеиста в Америке. Данила должен разобраться. Он вылетает в Америку и для компании берёт с собой брата. Теперь его фотография ходит по рукам русской и американской мафии. Новоявленные Аль Капоне понимают, что нарвались на профессионала…

    Продолжительность: 02: 02: 37
    Качество видео: WEB-DL 1080p
    Видео: AVC/H.264, 1920x1080 (16: 9), ~4000 kbps, 25 fps
    Аудио 1: AC3, 6 ch, 448 Kbps, 48.0 KHz, CBR - DUB DVD R5 - AMALGAMA
    Аудио 2: AC3, 6 ch, 448 Kbps, 48.0 KHz, CBR - \'International\' DVD R5 - AMALGAMA
    Аудио 3: AAC, 2 ch, 160 Kbps, 48.0 KHz, CBR - iTunes
    Код:

    General
    Unique ID : 222850127146859985670972314565753241433 (0xA7A75F90799BBE96AA0325D92600FF59)
    Complete name : G:Download_GBRAT2_WEB-DL_1080p-BLUEBIRD.mkv
    Format : Matroska
    Format version : Version 4/Version 2
    File size : 5.30 GiB
    Duration : 2h 2mn
    Overall bit rate : 6 182 Kbps
    Movie name : BRAT2_WEB-DL_1080p-BLUEBIRD
    Encoded date : UTC 2015-12-19 13:22:36
    Writing application : mkvmerge v7.1.0 (\'Good Love\') 64bit built on Jul 27 2014 13:06:55
    Writing library : libebml v1.3.0 + libmatroska v1.4.1
    DURATION : 01:58:48.720000000
    NUMBER_OF_FRAMES : 971
    NUMBER_OF_BYTES : 58550
    _STATISTICS_WRITING_APP : mkvmerge v7.1.0 (\'Good Love\') 64bit built on Jul 27 2014 13:06:55
    _STATISTICS_WRITING_DATE_UTC : 2015-12-19 13:22:36
    _STATISTICS_TAGS : BPS DURATION NUMBER_OF_FRAMES NUMBER_OF_BYTES
    Video
    ID : 1
    Format : AVC
    Format/Info : Advanced Video Codec
    Format profile : High@L4
    Format settings, CABAC : Yes
    Format settings, ReFrames : 4 frames
    Codec ID : V_MPEG4/ISO/AVC
    Duration : 2h 2mn
    Width : 1 920 pixels
    Height : 1 080 pixels
    Display aspect ratio : 16:9
    Frame rate mode : Constant
    Frame rate : 25.000 fps
    Color space : YUV
    Chroma subsampling : 4:2:0
    Bit depth : 8 bits
    Scan type : Progressive
    Title : BRAT2_WEB-DL_1080p-BLUEBIRD
    Language : Russian
    Default : Yes
    Forced : No
    Color range : Limited
    Color primaries : BT.709
    Transfer characteristics : BT.709
    Matrix coefficients : BT.709
    Audio #1
    ID : 2
    Format : AC-3
    Format/Info : Audio Coding 3
    Mode extension : CM (complete main)
    Format settings, Endianness : Big
    Codec ID : A_AC3
    Duration : 2h 2mn
    Bit rate mode : Constant
    Bit rate : 448 Kbps
    Channel(s) : 6 channels
    Channel positions : Front: L C R, Side: L R, LFE
    Sampling rate : 48.0 KHz
    Compression mode : Lossy
    Stream size : 393 MiB (7%)
    Title : [DUB] DD 5.1 @ 448 kbps - \'DVD-R5 AMALGAMA\'
    Language : Russian
    Default : No
    Forced : No
    Audio #2
    ID : 3
    Format : AC-3
    Format/Info : Audio Coding 3
    Mode extension : CM (complete main)
    Format settings, Endianness : Big
    Codec ID : A_AC3
    Duration : 2h 2mn
    Bit rate mode : Constant
    Bit rate : 448 Kbps
    Channel(s) : 6 channels
    Channel positions : Front: L C R, Side: L R, LFE
    Sampling rate : 48.0 KHz
    Compression mode : Lossy
    Stream size : 393 MiB (7%)
    Title : [ORIGINAL] DD 5.1 @ 448 kbps - \'DVD-R5 AMALGAMA\'
    Language : Russian
    Default : No
    Forced : No
    Audio #3
    ID : 4
    Format : AAC
    Format/Info : Advanced Audio Codec
    Format profile : LC
    Codec ID : A_AAC
    Duration : 2h 2mn
    Channel(s) : 2 channels
    Channel positions : Front: L R
    Sampling rate : 48.0 KHz
    Compression mode : Lossy
    Title : [ORIGINAL] AAC 2.0 @ 160 kbps - \'iTunes\'
    Language : Russian
    Default : No
    Forced : No
    Text
    ID : 5
    Format : UTF-8
    Codec ID : S_TEXT/UTF8
    Codec ID/Info : UTF-8 Plain Text
    Title : [Full-length]
    Language : Russian
    Default : No
    Forced : No
    Menu
    00:00:00.000 : en:Глава 1
    00:07:38.000 : en:Глава 2
    00:13:07.000 : en:Глава 3
    00:18:14.000 : en:Глава 4
    00:24:38.000 : en:Глава 5
    00:31:27.000 : en:Глава 6
    00:38:10.000 : en:Глава 7
    00:44:05.000 : en:Глава 8
    00:51:29.000 : en:Глава 9
    00:57:08.000 : en:Глава 10
    01:02:41.000 : en:Глава 11
    01:08:01.000 : en:Глава 12
    01:14:26.000 : en:Глава 13
    01:22:00.000 : en:Глава 14
    01:28:24.000 : en:Глава 15
    01:33:59.000 : en:Глава 16
    01:39:27.000 : en:Глава 17
    01:45:27.000 : en:Глава 18
    01:52:06.000 : en:Глава 19
    01:56:34.000 : en:Глава 20


    Скриншоты для ознакомления




    Онлайн видео Брат 2 (2000) WEB-DL [H.264



    Брат 2 (2000) WEB-DL [H.264/1080p-LQ]
    загрузка...
    Рейтинг →
     (голосов: 1, оценка 5/5, голосовать можно 1 раз )

    Другие торренты по теме:

  • Брат и Брат 2 :Дилогия (1997,2000) WEB-DL [H.264 / 1080p-LQ]
  • Брат (1997) WEB-DL [H.264 / 720p-LQ] скачать через торрент бесплатно
  • Брат 2 (2000) WEB-DL [H.264 / 720p-LQ] скачать через торрент бесплатно
  • Брат (1997) WEB-DL [H.264 / 1080p-LQ]
  • Брат 2 (2000) WEB-DL [H.264 / 720p] [hand made 60fps]


    • Комментарии (0):

      Информация

      Информация

        Посетители, находящиеся в группе Гости, не могут оставлять комментарии в данной новости.

        ↓ Меню




        ↓ Опрос

        Вы добавили сайт в закладки?
        Да
        Нет


        Top 10 за месяц (Фильмы)