.
Авторизация | Регистрация
Хочешь лучшие торренты? Добавь свой email!
Добавить

Торрент скачать бесплатно

» » Гражданин Никто (2016) SATRip [H.264] (1-8 серии из 24) (Обновляемая) торрент скачать бесплатно




    Гражданин Никто (2016) SATRip [H.264] (1-8 серии из 24) (Обновляемая) торрент скачать бесплатно

    Опубликовал: Админ | Дата: 10-03-2016, 04:00 | Просмотров: 121

    Производство: Новая студия, кинокомпания УПС по заказу ТРК Украина Россия 1
    Жанр: Детектив
    Режиссер: Владимир Янковський

    Актеры
    Иван Оганесян, Ирина Пегова, Антон Макарский, Елена Великанова, Александр Рапопорт, Мария Козакова, Александр Головин, Михаил Ефремов, Сергей Калантай, Фёдор Гуринец, Владимир Мельник, Олег Чугунов, Валентина Пугачёва (II), Алиса Лукшина, Владимир Гончаров (II), Александр Онуфриев, Михаил Жонин, Дмитрий Вивчарюк, Ринат Хайруллин, Олег Иваница, Александр Кобзарь

    Описание

    Каково оно, — вернуться на Землю, проведя 20 лет между двух миров, не делая ни шага ни в том, ни в ином направлении? Именно так начинается история, о которой расскажет новый детективный сериал Гражданин Никто. Максим Орлов – опытный детектив, который уже несколько лет безуспешно пытается поймать жестокого преступника по кличке Бумажный убийца. Во время одной из операций он получает сильную травму головы и впадает в состояние комы больше чем на 20 лет. Проснувшись, он оказывается уже в другой стране, с другими людьми. Вся его жизнь изменилась: постарели коллеги на работе, любимая девушка замужем за другим, но главное – Бумажный убийца все еще на свободе. Сможет ли Максим Орлов уже в новом времени поймать преступника, и как он будет адаптироваться к новой жизни?

    Дата премьеры в мире: 7 марта ( Украина)
    Продолжительность: ~00: 49: 00 серия
    Качество видео: SATRip
    Видео: AVC/H.264, 720х400, ~~1600 Кбит/сек
    Аудио: AC3, 2 ch, 2 канала, 192 Кбит/сек, CBR
    Субтитры: Украинские, вшитые
    Код:

    Общее
    Уникальный идентификатор : 251304923010151825467380586171966580583 (0xBD0F9150D628D8B18A9D282FF68A6767)
    Полное имя : G:Гражданин НиктоГражданин Никто_01 серия rip by_Aleksan55.mkv
    Формат : Matroska
    Версия формата : Version 2
    Размер файла : 638 Мбайт
    Продолжительность : 49 м.
    Общий поток : 1794 Кбит/сек
    Дата кодирования : UTC 2016-03-08 00:01:19
    Программа кодирования : mkvmerge v7.8.0 (\'River Man\') 32bit built on Apr 3 2015 12:11:22
    Библиотека кодирования : libebml v1.3.1 + libmatroska v1.4.2
    Видео
    Идентификатор : 1
    Формат : AVC
    Формат/Информация : Advanced Video Codec
    Профиль формата :High@L4.1
    Параметр CABAC формата : Да
    Параметр ReFrames формата : 9 кадров
    Идентификатор кодека : V_MPEG4/ISO/AVC
    Продолжительность : 49 м.
    Битрейт : 1600 Кбит/сек
    Ширина : 720 пикселей
    Высота : 400 пикселей
    Соотношение сторон : 16:9
    Режим частоты кадров : Постоянный
    Частота кадров : 25, 000 кадров/сек
    Цветовое пространство : YUV
    Субдискретизация насыщенности : 4:2:0
    Битовая глубина : 8 бит
    Тип развёртки : Прогрессивная
    Бит/(Пиксели*Кадры) : 0.222
    Размер потока : 557 Мбайт (87%)
    Библиотека кодирования : x264 core 146 r2538 121396c
    Настройки программы : cabac=1/ref=9/deblock=1:-3:-3/analyse=0x3:0x113/me=umh/subme=9/psy=1/psy_rd=1.00:0.25/mixed_ref=0/me_range=32/chroma_me=1/trellis=2/8x8dct=1/cqm=0/deadzone=6, 6/fast_pskip=1/chroma_qp_offset=-4/threads=6/lookahead_threads=4/sliced_threads=0/nr=0/decimate=0/interlaced=0/bluray_compat=0/constrained_intra=0/bframes=9/b_pyramid=2/b_adapt=1/b_bias=0/direct=3/weightb=1/open_gop=0/weightp=2/keyint=250/keyint_min=25/scenecut=40/intra_refresh=0/rc_lookahead=40/rc=2pass/mbtree=1/bitrate=1600/ratetol=1.0/qcomp=0.80/qpmin=0/qpmax=69/qpstep=4/cplxblur=20.0/qblur=0.5/ip_ratio=1.10/aq=1:1.00
    Default : Да
    Forced : Нет
    Цветовой диапазон : Limited
    Основные цвета : BT.601 PAL
    Характеристики трансфера : BT.470 System B, BT.470 System G
    Коэффициенты матрицы : BT.601
    Аудио
    Идентификатор : 2
    Формат : AC-3
    Формат/Информация : Audio Coding 3
    Расширение режима : CM (complete main)
    Параметр Endianness формата : Big
    Идентификатор кодека : A_AC3
    Продолжительность : 49 м.
    Вид битрейта : Постоянный
    Битрейт : 192 Кбит/сек
    Каналы : 1 канал
    Расположение каналов : Front: C
    Частота : 48, 0 КГц
    Метод сжатия : С потерями
    Размер потока : 68, 2 Мбайт (11%)
    Default : Да
    Forced : Нет


    Скриншоты для ознакомления




    Онлайн видео Гражданин Никто (2016) SATRip [H.264] (1



    Гражданин Никто (2016) SATRip [H.264] (1-8 серии из 24) (Обновляемая)
    загрузка...
    Рейтинг →
     (голосов: 1, оценка 5/5, голосовать можно 1 раз )

    Другие торренты по теме:

  • Гражданин Никто (2016) HDTV [H.264 / 1080i-LQ] (серии 1-11 из 20) Обновляемая
  • Гражданин Никто (2016) HDTVRip (серии 1-16 из 16)
  • Гражданин Никто (2016) HDTVRip [H.264 / 720p-LQ] (серии 1-16 из 16)


    • Комментарии (0):

      Информация

      Информация

        Посетители, находящиеся в группе Гости, не могут оставлять комментарии в данной новости.

        ↓ Меню




        ↓ Опрос

        Вы добавили сайт в закладки?
        Да
        Нет


        Top 10 за месяц (Фильмы)