.
Авторизация | Регистрация
Хочешь лучшие торренты? Добавь свой email!
Добавить

Торрент скачать бесплатно

» » Цари и пророки / Of Kings and Prophets (2015) WEB-DLRip (сезон 1, серия 1 из 10) ColdFilm (обновляемая) торрент скачать бесплатно




    Цари и пророки / Of Kings and Prophets (2015) WEB-DLRip (сезон 1, серия 1 из 10) ColdFilm (обновляемая) торрент скачать бесплатно

    Опубликовал: Админ | Дата: 10-03-2016, 04:00 | Просмотров: 140

    Производство: США, ABC Studios, BoomGen Studios
    Жанр: Драма
    Режиссер: Джеффри Начманофф, Дуан Кларк.

    Актеры
    Рэй Уинстон, Симона Кэссел, Джеймс Флойд, Элоди Юнг, Келси Иган, Джо Ваз.

    Описание

    Американский телевизионный сериал, который вышел на ABC в сезон любимого сериалае 2015—2016 годов. В центре сюжета находятся библейские мотивы, завернутые в ложь, предательство и месть, влекущие за собой смерти1. Действие шоу разворачивается в Израиле, хотя проект снимается в Южной Африке.
    Действующие лица, закаленный в боях царь, влиятельный пророк и находчивый молодой пастух.

    Дата мировой премьеры: 8 марта 2016
    Релиз от: ColdFilm
    Продолжительность: 00: 44: 00
    Качество видео: WEB-DLRip
    Перевод: Двуголосый закадровый, любительский (ColdFilm)
    Субтитры: Отсутствуют
    Реклама: Присутствуют голосовые вставки рекламы.
    Видео: Xvid, 720x400, ~981 Kbps
    Аудио: MP3, 2 ch, 128 Kbps
    Код:

    General
    Complete name : E:сериалыOf.Kings.and.Prophets.S01E01.400p.WEB-DLRip.ColdFilm.Ru.avi
    Format : AVI
    Format/Info : Audio Video Interleave
    File size : 351 MiB
    Duration : 43mn 43s
    Overall bit rate : 1 122 Kbps
    Writing application : Lavf54.63.104
    Video
    ID : 0
    Format : xvid
    Codec ID : xvid
    Duration : 43mn 43s
    Bit rate : 981 Kbps
    Width : 720 pixels
    Height : 400 pixels
    Display aspect ratio : 16:9
    Frame rate : 25.000 fps
    Bits/(Pixel*Frame) : 0.136
    Stream size : 307 MiB (87%)
    Audio
    ID : 1
    Format : MPEG Audio
    Format version : Version 1
    Format profile : Layer 3
    Mode : Joint stereo
    Codec ID : 55
    Codec ID/Hint : MP3
    Duration : 43mn 43s
    Bit rate mode : Constant
    Bit rate : 128 Kbps
    Channel(s) : 2 channels
    Sampling rate : 48.0 KHz
    Compression mode : Lossy
    Stream size : 40.0 MiB (11%)
    Alignment : Aligned on interleaves
    Interleave, duration : 24 ms (0.60 video frame)
    Writing library : LAME3.99.5


    Онлайн видео Цари и пророки



    Цари и пророки/Of Kings and Prophets (2015) WEB-DLRip (сезон 1, серия 1 из 10) ColdFilm (обновляемая)
    загрузка...
    Рейтинг →
     (голосов: 1, оценка 4/5, голосовать можно 1 раз )

    Другие торренты по теме:

  • Цари и пророки / Of Kings And Prophets (2016) WEB-DLRip (сезон 1, серии 1-5 из 13) BaibaKo (обновляемая)
  • Цари и пророки / Of Kings And Prophets (2016) WEB-DLrip [H.264 / 1080p-LQ] (сезон 1, серии 1-5 из 13) BaibaKo (обновляемая)


    • Комментарии (0):

      Информация

      Информация

        Посетители, находящиеся в группе Гости, не могут оставлять комментарии в данной новости.

        ↓ Меню




        ↓ Опрос

        Вы добавили сайт в закладки?
        Да
        Нет


        Top 10 за месяц (Фильмы)