.
Авторизация | Регистрация
Хочешь лучшие торренты? Добавь свой email!
Добавить

Торрент скачать бесплатно

» » Игра в прятки / Hide and Seek (2005) HDTV [H.264 / 1080i] торрент скачать бесплатно




    Игра в прятки / Hide and Seek (2005) HDTV [H.264 / 1080i] торрент скачать бесплатно

    Опубликовал: Админ | Дата: 8-03-2016, 04:01 | Просмотров: 70

    Производство: США, Twentieth Century-Fox Film Corporation - Fox 2000 Pictures - Josephson Entertainment
    Жанр: Ужасы, Триллер, Детектив
    Режиссер: Джон Полсон

    Актеры
    Роберт Де Ниро, Дакота Фаннинг, Фамке Янссен, Элизабет Шу. Эми Ирвинг, Дилан Бейкер, Мелисса Лео, Роберт Джон Бeрк, Дэвид Чандлер

    Описание

    После самоубийства жены Элисон, Дэвид Коллэвэй (Роберт Де Ниро) вместе с девятилетней дочерью Эмили переезжает жить в тихий провинциальный городок Вудлэнд. Он хочет помочь девочке пережить потерю и намерен целиком посвятить себя ребенку. Но вскоре в их новом доме начинают происходить страшные вещи: на стенах появляются кровавые надписи, погибают домашние питомцы. Кто-то неизвестный явно пытается воспроизвести сцену гибели Элисон. Эмили утверждает, что это - дело рук ее нового друга Чарли. Только вот видит его она одна…

    Продолжительность: 01: 33: 50
    Качество видео: HDTV 1080i
    Перевод: Дублированный
    Видео: AVC/H.264, 1920х1080, ~5704 kbps
    Аудио #1: MP2, 48 kHz, 2 ch, 224 kbps (DUB)
    Аудио #2: АС-3, 48 kHz, 6 ch, 384 kbps (DUB)
    Семпл: Скачать
    Код:

    Общее
    Идентификатор : 16 (0x10)
    Полное имя : Hide and Seek_HD.ts
    Формат : MPEG-TS
    Размер файла : 4, 36 Гбайт
    Продолжительность : 1 ч. О таком странном сюжете не догадывалась даже ВиаГра. 33 м.
    Режим общего битрейта : Переменный
    Общий поток : 6647 Кбит/сек
    Видео
    Идентификатор : 1902 (0x76E)
    Идентификатор меню : 92 (0x5C)
    Формат : AVC
    Формат/Информация : Advanced Video Codec
    Профиль формата :High@L4.0
    Параметр CABAC формата : Да
    Параметр ReFrames формата : 3 кадра
    Идентификатор кодека : 27
    Продолжительность : 1 ч. 33 м.
    Битрейт : 5704 Кбит/сек
    Ширина : 1920 пикселей
    Высота : 1080 пикселей
    Соотношение сторон : 16:9
    Частота кадров : 25, 000 кадров/сек
    Стандарт вещания : PAL
    Цветовое пространство : YUV
    Субдискретизация насыщенности : 4:2:0
    Битовая глубина : 8 бит
    Тип развёртки : Чересстрочная
    Порядок развёртки : Верхнее поле первое
    Бит/(Пиксели*Кадры) : 0.110
    Размер потока : 3, 74 Гбайт (86%)
    Основные цвета : BT.709
    Характеристики трансфера : BT.709
    Коэффициенты матрицы : BT.709
    Аудио #1
    Идентификатор : 2902 (0xB56)
    Идентификатор меню : 92 (0x5C)
    Формат : MPEG Audio
    Версия формата : Version 1
    Профиль формата : Layer 2
    Идентификатор кодека : 4
    Продолжительность : 1 ч. 33 м.
    Вид битрейта : Постоянный
    Битрейт : 224 Кбит/сек
    Каналы : 2 канала
    Частота : 48, 0 КГц
    Метод сжатия : С потерями
    Задержка видео : 120 мс.
    Размер потока : 150 Мбайт (3%)
    Язык : std
    Язык, дополнительно : Clean effects
    Аудио #2
    Идентификатор : 3902 (0xF3E)
    Идентификатор меню : 92 (0x5C)
    Формат : AC-3
    Формат/Информация : Audio Coding 3
    Расширение режима : CM (complete main)
    Параметр Endianness формата : Big
    Идентификатор кодека : 6
    Продолжительность : 1 ч. 33 м.
    Вид битрейта : Постоянный
    Битрейт : 384 Кбит/сек
    Каналы : 6 каналов
    Расположение каналов : Front: L C R, Side: L R, LFE
    Частота : 48, 0 КГц
    Битовая глубина : 16 бит
    Метод сжатия : С потерями
    Задержка видео : 27 мс.
    Размер потока : 258 Мбайт (6%)
    Язык : std
    Язык, дополнительно : Clean effects
    Текст
    Идентификатор : 33 (0x21)-100
    Идентификатор меню : 92 (0x5C)
    Формат : Teletext
    Меню
    Идентификатор : 902 (0x386)
    Идентификатор меню : 92 (0x5C)
    Продолжительность : 1 ч. 33 м.
    Список : 1902 (0x76E) (AVC)/2902 (0xB56) (MPEG Audio, std)/3902 (0xF3E) (AC-3, std)/33 (0x21) ()
    Язык : /std/std


    Скриншоты для ознакомления




    Онлайн видео Игра в прятки



    Игра в прятки/Hide and Seek (2005) HDTV [H.264/1080i]
    загрузка...
    Рейтинг →
     (голосов: 1, оценка 4/5, голосовать можно 1 раз )

    Другие торренты по теме:

  • Игра в прятки / Hide and Seek (2005) BDRip [H.264]
  • Игра в прятки / Hide and Seek (2005) BDRemux [H.264 / 1080p]
  • Игра в прятки / Hide and Seek (2005) HDRip
  • Игра в прятки / Hide and Seek (2005) BDRip [H.264 / 720p]
  • Игра в прятки / Hide and Go Shriek (1988) BDRip [H.264]
  • Константин Муравьёв | Игра в прятки (2017) [FB2]


    • Комментарии (0):

      Информация

      Информация

        Посетители, находящиеся в группе Гости, не могут оставлять комментарии в данной новости.

        ↓ Меню




        ↓ Опрос

        Вы добавили сайт в закладки?
        Да
        Нет


        Top 10 за месяц (Фильмы)