.
Авторизация | Регистрация
Хочешь лучшие торренты? Добавь свой email!
Добавить

Торрент скачать бесплатно

» » Поезд идет на Восток (1947) DVDRip [Цветной] торрент скачать бесплатно




    Поезд идет на Восток (1947) DVDRip [Цветной] торрент скачать бесплатно

    Опубликовал: Админ | Дата: 7-03-2016, 04:00 | Просмотров: 75

    Производство: СССР
    Жанр: Мелодрама, Комедия
    Режиссер: Юлий Райзман

    Актеры
    Лидия Драновская, Петр Глебов, Владимир Дорофеев, Константин Сорокин, Леонид Галлис, Мария Яроцкая, Владимир Любимов, Владимир Уральский, Николай Горлов, Татьяна Барышева, Сергей Комаров, Андрей Петров, Олеся Иванова, Александра Денисова, Мария Андрианова, Тихон Хренников

    Описание

    Легендарная романтическая комедия, вышедшая на экраны в первые послевоенные годы. Морской офицер Лаврентьев и агроном Зина Соколова встретились 9 мая 1945 года в поезде Москва-Владивосток. Отстав от поезда на одной из станций, они получают возможность лучше присмотреться друг к другу. В конце их долгого путешествия на Дальний Восток, полного головокружительных и романтических приключений, они понимают, что расстаются ненадолго...

    Продолжительность: 01: 27: 02
    Качество видео: DVDRip
    Видео: H.264, 696x560@747x560 (4: 3), ~1597 Kbps, 25 fps
    Аудио: AC3, 2 ch, 192 kbps, 48 kHz, CBR
    Код:

    General
    Unique ID : 246777811588485355249249929904102282886 (0xB9A7AD7D6912F7B89D5C45F79DE79686)
    Complete name : G:Download_GPoezd.idet.na.Vostok.1947.DVDRip-AVC_[New-team]_by_AVP_Studio.mkv
    Format : Matroska
    Format version : Version 2
    File size : 1.09 GiB
    Duration : 1h 27mn
    Overall bit rate : 1 791 Kbps
    Encoded date : UTC 2015-07-01 17:39:05
    Writing application : mkvmerge v6.1.0 (\'Old Devil\') built on Mar 4 2013 09:10:42
    Writing library : libebml v1.3.0 + libmatroska v1.4.0
    Video
    ID : 1
    Format : AVC
    Format/Info : Advanced Video Codec
    Format profile :High@L4.1
    Format settings, CABAC : Yes
    Format settings, ReFrames : 8 frames
    Codec ID : V_MPEG4/ISO/AVC
    Duration : 1h 27mn
    Bit rate : 1 597 Kbps
    Width : 696 pixels
    Height : 560 pixels
    Display aspect ratio : 4:3
    Frame rate mode : Constant
    Frame rate : 25.000 fps
    Color space : YUV
    Chroma subsampling : 4:2:0
    Bit depth : 8 bits
    Scan type : Progressive
    Bits/(Pixel*Frame) : 0.164
    Stream size : 973 MiB (87%)
    Writing library : x264 core 138 r2356 a1d3d17
    Encoding settings : cabac=1/ref=8/deblock=1:-2:-1/analyse=0x3:0x113/me=umh/subme=10/psy=1/psy_rd=1.00:0.05/mixed_ref=1/me_range=32/chroma_me=1/trellis=2/8x8dct=1/cqm=0/deadzone=21, 11/fast_pskip=0/chroma_qp_offset=-3/threads=6/lookahead_threads=1/sliced_threads=0/nr=0/decimate=0/interlaced=0/bluray_compat=0/constrained_intra=0/bframes=8/b_pyramid=2/b_adapt=2/b_bias=0/direct=3/weightb=1/open_gop=0/weightp=2/keyint=250/keyint_min=25/scenecut=40/intra_refresh=0/rc=2pass/mbtree=0/bitrate=1597/ratetol=1.0/qcomp=0.60/qpmin=0/qpmax=69/qpstep=4/cplxblur=20.0/qblur=0.5/ip_ratio=1.40/pb_ratio=1.30/aq=1:1.00
    Default : Yes
    Forced : No
    Audio
    ID : 2
    Format : AC-3
    Format/Info : Audio Coding 3
    Mode extension : CM (complete main)
    Format settings, Endianness : Big
    Codec ID : A_AC3
    Duration : 1h 27mn
    Bit rate mode : Constant
    Bit rate : 192 Kbps
    Channel(s) : 2 channels
    Channel positions : Front: L R
    Sampling rate : 48.0 KHz
    Compression mode : Lossy
    Stream size : 120 MiB (11%)
    Default : Yes
    Forced : No


    Скриншоты для ознакомления




    Онлайн видео Между нот, или Тантрическая симфония (2015) WEB



    Поезд идет на Восток (1947) DVDRip [Цветной]
    загрузка...
    Рейтинг →
     (голосов: 1, оценка 4/5, голосовать можно 1 раз )

    Другие торренты по теме:

  • Поезд сирот / Поезд с сиротами / Orphan Train (1979) TVRip скачать через торрент бесплатно
  • Денежный поезд / Money Train (1995) BDRemux [1080p] скачать через торрент бесплатно
  • Поезд на Юму / 3:10 to Yuma (2007) BDRemux [1080p]
  • Поезд на Юму / 3:10 to Yuma (2007) HDRip [AVO] скачать через торрент бесплатно
  • Денежный поезд / Money Train (1995) BDRip [720p]
  • Денежный поезд / Money Train (1995) HDRip [AVO] скачать через торрент бесплатно
  • Таинственный поезд / Mystery Train (1986) BDRip [720p] скачать через торрент бесплатно
  • Денежный поезд / Money Train (1995) BDRip [H.264 / 1080p] скачать через торрент бесплатно


    • Комментарии (0):

      Информация

      Информация

        Посетители, находящиеся в группе Гости, не могут оставлять комментарии в данной новости.

        ↓ Меню




        ↓ Опрос

        Вы добавили сайт в закладки?
        Да
        Нет


        Top 10 за месяц (Фильмы)