.
Авторизация | Регистрация
Хочешь лучшие торренты? Добавь свой email!
Добавить

Торрент скачать бесплатно

» » Петр Первый (1937) SATRip [H.264] [Восстановление 1965 г.] торрент скачать бесплатно




    Петр Первый (1937) SATRip [H.264] [Восстановление 1965 г.] торрент скачать бесплатно

    Опубликовал: Админ | Дата: 6-03-2016, 04:06 | Просмотров: 66

    Производство: СССР, Ленфильм
    Жанр: Исторический фильм, экранизация
    Режиссер: Владимир Петров (III), Сергей Бартенев

    Актеры
    Николай Симонов, Николай Черкасов, Алла Тарасова, Михаил Жаров, Михаил Тарханов, Константин Гибшман, Виктор Добровольский, Н. Рошефор, Федор Богданов, Николай Литвинов, Ирина Зарубина, Георгий Орлов, Александр Лариков, Петр Кузнецов, Анатолий Ржанов, Нина Латонина, М. Сафронова, Владимир Гардин, Эдгар Гаррик, Алексей Ватуля, Владимир Ершов, Н. Корсакпаев...

    Описание

    Экранизация романа Алексея Толстого. Конец XVII — начало XVIII столетия. О таком странном сюжете не догадывалась даже Тимошенко. Период становления Великой Российской Империи, время крупных реформ и тайных заговоров, великих воинских побед и дворцовых переворотов, безудержного веселья ассамблей и жестокого кровопролития казней. О жизни и государственной деятельности преобразователя России XVIII века царя Петра Первого.

    Релиз от: fomatash
    Продолжительность: 03: 12: 06 (Две серии одним файлом)
    Качество видео: SATRip
    Перевод: Не требуется
    Субтитры: Отсутствуют
    Видео: AVC/H.264, 698x574@744x574, ~2246 kbps
    Аудио: MP2, 2 ch, 192 kbps, CBR
    Код:

    Общее
    Уникальный идентификатор : 200811481627505707952787459429716847342 (0x9712E272CEA13BFBBA7EFBF9400DEAEE)
    Полное имя : D:-TTTПетр Первый-Sat-MG-NNM.mkv
    Формат : Matroska
    Версия формата : Version 4/Version 2
    Размер файла : 3, 27 Гбайт
    Продолжительность : 3 ч. 12 м.
    Общий поток : 2440 Кбит/сек
    Дата кодирования : UTC 2016-02-16 09:14:25
    Программа кодирования : mkvmerge v8.8.0 (\'Wind at my back\') 32bit
    Библиотека кодирования : libebml v1.3.3 + libmatroska v1.4.4
    Видео
    Идентификатор : 1
    Формат : AVC
    Формат/Информация : Advanced Video Codec
    Профиль формата :High@L4.1
    Параметр CABAC формата : Да
    Параметр ReFrames формата : 14 кадров
    Идентификатор кодека : V_MPEG4/ISO/AVC
    Продолжительность : 3 ч. 12 м.
    Битрейт : 2246 Кбит/сек
    Ширина : 698 пикселей
    Высота : 574 пикселя
    Соотношение сторон : 1, 296
    Соотношение сторон в оригинале : 1, 297
    Режим частоты кадров : Постоянный
    Частота кадров : 25, 000 кадров/сек
    Цветовое пространство : YUV
    Субдискретизация насыщенности : 4:2:0
    Битовая глубина : 8 бит
    Тип развёртки : Прогрессивная
    Бит/(Пиксели*Кадры) : 0.224
    Размер потока : 3, 01 Гбайт (92%)
    Заголовок : FomaTash for nnm-club.me
    Библиотека кодирования : x264 core 146 r2538 121396c
    Настройки программы : cabac=1/ref=14/deblock=1:-1:-1/analyse=0x3:0x133/me=umh/subme=9/psy=1/psy_rd=1.00:0.15/mixed_ref=1/me_range=32/chroma_me=1/trellis=2/8x8dct=1/cqm=0/deadzone=21, 11/fast_pskip=1/chroma_qp_offset=-3/threads=6/lookahead_threads=1/sliced_threads=0/nr=0/decimate=0/interlaced=0/bluray_compat=0/constrained_intra=0/bframes=12/b_pyramid=2/b_adapt=2/b_bias=0/direct=3/weightb=1/open_gop=0/weightp=2/keyint=240/keyint_min=23/scenecut=40/intra_refresh=0/rc_lookahead=40/rc=2pass/mbtree=0/bitrate=2246/ratetol=1.0/qcomp=0.60/qpmin=10/qpmax=51/qpstep=4/cplxblur=20.0/qblur=0.5/vbv_maxrate=50000/vbv_bufsize=62500/nal_hrd=none/filler=0/ip_ratio=1.40/pb_ratio=1.30/aq=1:1.00
    Язык : Russian
    Default : Да
    Forced : Нет
    Аудио
    Идентификатор : 2
    Формат : MPEG Audio
    Версия формата : Version 1
    Профиль формата : Layer 2
    Идентификатор кодека : A_MPEG/L2
    Идентификатор кодека/Подсказка : MP2
    Продолжительность : 3 ч. 12 м.
    Вид битрейта : Постоянный
    Битрейт : 192 Кбит/сек
    Каналы : 2 канала
    Частота : 48, 0 КГц
    Частота кадров : 41, 667 кадра/сек (1152 spf)
    Метод сжатия : С потерями
    Размер потока : 264 Мбайт (8%)
    Заголовок : MP2-2 канала
    Язык : Russian
    Default : Да
    Forced : Нет
    --Information 13.02.2016 15: 17: 25 Standard error stream
    ---Information 13.02.2016 15: 17: 37 raw info: 698x574p 897: 841 @ 25/1 fps (cfr)
    ---Information 13.02.2016 15: 17: 37 x264 info: using SAR=897/841
    ---Information 13.02.2016 15: 17: 37 x264 info: using cpu capabilities: MMX2 SSE2Fast SSSE3 SSE4.2
    ---Information 13.02.2016 15: 17: 37 x264 info: profile High, level 4.1
    ---Information 13.02.2016 23: 27: 23 x264 info: frame I: 1454 Avg QP: 17.89 size: 33255
    ---Information 13.02.2016 23: 27: 23 x264 info: frame P: 53102 Avg QP: 20.22 size: 17678
    ---Information 13.02.2016 23: 27: 23 x264 info: frame B: 233602 Avg QP: 21.97 size: 9628
    ---Information 13.02.2016 23: 27: 23 x264 info: consecutive B-frames: 1.3% 1.0% 3.5% 18.1% 12.7% 29.1% 10.3% 9.5% 5.5% 3.3% 2.0% 3.0% 0.7%
    ---Information 13.02.2016 23: 27: 23 x264 info: mb I I16..4: 2.7% 84.0% 13.3%
    ---Information 13.02.2016 23: 27: 23 x264 info: mb P I16..4: 0.6% 18.5% 1.6% P16..4: 49.1% 21.9% 7.9% 0.1% 0.0% skip: 0.4%
    ---Information 13.02.2016 23: 27: 23 x264 info: mb B I16..4: 0.1% 1.9% 0.1% B16..8: 49.7% 18.0% 2.7% direct: 16.2% skip: 11.4% L0: 53.0% L1: 41.0% BI: 6.0%
    ---Information 13.02.2016 23: 27: 23 x264 info: 8x8 transform intra: 89.0% inter: 68.1%
    ---Information 13.02.2016 23: 27: 23 x264 info: direct mvs spatial: 97.3% temporal: 2.7%
    ---Information 13.02.2016 23: 27: 23 x264 info: coded y, uvDC, uvAC intra: 94.8% 0.0% 0.0% inter: 55.3% 0.0% 0.0%
    ---Information 13.02.2016 23: 27: 23 x264 info: i16 v, h, dc, p: 23% 12% 11% 53%
    ---Information 13.02.2016 23: 27: 23 x264 info: i8 v, h, dc, ddl, ddr, vr, hd, vl, hu: 9% 6% 5% 9% 14% 15% 14% 13% 14%
    ---Information 13.02.2016 23: 27: 23 x264 info: i4 v, h, dc, ddl, ddr, vr, hd, vl, hu: 9% 7% 2% 8% 15% 15% 16% 12% 16%
    ---Information 13.02.2016 23: 27: 23 x264 info: i8c dc, h, v, p: 100% 0% 0% 0%
    ---Information 13.02.2016 23: 27: 23 x264 info: Weighted P-Frames: Y: 47.1% UV: 0.0%
    ---Information 13.02.2016 23: 27: 23 x264 info: ref P L0: 29.7% 9.0% 13.4% 9.2% 7.0% 6.0% 5.2% 3.5% 3.1% 2.9% 2.7% 2.5% 2.3% 2.3% 1.1% 0.0%
    ---Information 13.02.2016 23: 27: 23 x264 info: ref B L0: 50.1% 14.7% 9.3% 5.5% 4.4% 3.8% 3.3% 2.2% 1.9% 1.8% 1.6% 1.0% 0.4%
    ---Information 13.02.2016 23: 27: 23 x264 info: ref B L1: 87.2% 12.8%
    ---Information 13.02.2016 23: 27: 23 x264 info: kb/s: 2246.11
    ---Information 13.02.2016 23: 27: 23 encoded 288158 frames, 9.81 fps, 2246.11 kb/s


    Скриншоты для ознакомления




    Петр Первый (1937) SATRip [H.264] [Восстановление 1965 г.]
    загрузка...
    Рейтинг →
     (голосов: 1, оценка 5/5, голосовать можно 1 раз )

    Другие торренты по теме:

  • Петр Первый (1937) DVDRip [H.264] [hand made colored] скачать через торрент бесплатно
  • Роман Ключник | Петр Первый [Часть вторая] (2015) [MP3]
  • Петр Первый. Завещание (2011) WEB-DLRip [H.264 / 720p-LQ] (серии 1-4 из 4)
  • Петр Первый (1937) DVDRip


    • Комментарии (0):

      Информация

      Информация

        Посетители, находящиеся в группе Гости, не могут оставлять комментарии в данной новости.

        ↓ Меню




        ↓ Опрос

        Вы добавили сайт в закладки?
        Да
        Нет


        Top 10 за месяц (Фильмы)