.
Авторизация | Регистрация
Хочешь лучшие торренты? Добавь свой email!
Добавить

Торрент скачать бесплатно

» » Кухня (2016) WEB-DLRip [H.264 / 720p-LQ] (сезон 6, серии 1-2 из 20) (обновляемая) торрент скачать бесплатно




    Кухня (2016) WEB-DLRip [H.264 / 720p-LQ] (сезон 6, серии 1-2 из 20) (обновляемая) торрент скачать бесплатно

    Опубликовал: Админ | Дата: 1-03-2016, 04:00 | Просмотров: 92

    Производство: Россия/YBW Group по заказу СТС,
    Жанр: комедия
    Режиссер: Дмитрий Дьяченко, Жора Крыжовников, Антон Федотов

    Актеры
    Дмитрий Назаров, Дмитрий Нагиев, Елена Подкаминская, Марина Могилевская, Марк Богатырёв, Михаил Башкатов, Виктор Хориняк, Ольга Кузьмина, Екатерина Кузнецова, Валерия Федорович, Жанныл Асанбекова, Елена Чернявская, Алексей Колган, Сергей Лавыгин, Сергей Епишев, Михаил Тарабукин, Никита Тарасов, Юлия Такшина, Виктория Лукина, Виталий Щанников, Сергей Беляев, Роман Индык, Евгения Храповицкая, Ольга Новосад, Серафима Низовская, Александр Карпиловский, Мария Горбань, Ирина Бразговка и др.

    Описание

    Прошлый ресторан Claude Monet пережил потоп, пожар, различные облавы и даже визит президента. О таком странном сюжете не догадывалась даже Вера Брежнева. После чего был переезд в Париж, где самые лучшие повара не давали покоя конкурентам. Но даже это не предел того, что будет в новом сезон любимого сериалае. Команда вместе с Виктором Бариновым перейдет работать в другой ресторан. Телезрителей ожидают не только старые полюбившиеся персонажи, но и новые, которые не сразу смогут мириться с весьма вспыльчивым характером шефа. Об этом и многом другом мы узнаем после просмотра финального сезон любимого сериалаа сериала Кухня.

    Продолжительность: ~00: 25: 00 серия
    Качество видео: WEB-DLRip
    Видео: AVC/H.264, 1280x720 (16: 9), ~2500 Kbps
    Аудио: AC3, 2 ch, 256 Kbps, CBR
    Код:
    Общее
    Уникальный идентификатор : 207173338616153600975949133388102566998 (0x9BDC223703ADC22C80326D53F02D0456)
    Полное имя : F:DOWNLOADSКухня (6 сезон любимого сериала) 2016 WEB-DLRip 720Кухня 6 - 01 серия.mkv
    Формат : Matroska
    Версия формата : Version 2
    Размер файла : 533 Мбайт
    Продолжительность : 27 м.
    Общий поток : 2742 Кбит/сек
    Дата кодирования : UTC 2016-02-29 18:43:43
    Программа кодирования : mkvmerge v7.8.0 (\'River Man\') 32bit built on Apr 3 2015 12:11:22
    Библиотека кодирования : libebml v1.3.1 + libmatroska v1.4.2
    Видео
    Идентификатор : 1
    Формат : AVC
    Формат/Информация : Advanced Video Codec
    Профиль формата : Baseline@L3
    Параметр CABAC формата : Нет
    Параметр ReFrames формата : 3 кадра
    Идентификатор кодека : V_MPEG4/ISO/AVC
    Продолжительность : 27 м.
    Битрейт : 2500 Кбит/сек
    Ширина : 1280 пикселей
    Высота : 720 пикселей
    Соотношение сторон : 16:9
    Режим частоты кадров : Постоянный
    Частота кадров : 25, 000 кадров/сек
    Цветовое пространство : YUV
    Субдискретизация насыщенности : 4:2:0
    Битовая глубина : 8 бит
    Тип развёртки : Прогрессивная
    Бит/(Пиксели*Кадры) : 0.109
    Размер потока : 473 Мбайт (89%)
    Библиотека кодирования : x264 core 142
    Настройки программы : cabac=0/ref=3/deblock=1:0:0/analyse=0x1:0x111/me=hex/subme=7/psy=1/psy_rd=1.00:0.00/mixed_ref=1/me_range=16/chroma_me=1/trellis=1/8x8dct=0/cqm=0/deadzone=21, 11/fast_pskip=1/chroma_qp_offset=-2/threads=36/lookahead_threads=5/sliced_threads=0/nr=0/decimate=1/interlaced=0/bluray_compat=0/constrained_intra=0/bframes=0/weightp=0/keyint=250/keyint_min=25/scenecut=40/intra_refresh=0/rc_lookahead=40/rc=abr/mbtree=1/bitrate=2500/ratetol=1.0/qcomp=0.60/qpmin=0/qpmax=69/qpstep=4/ip_ratio=1.40/aq=1:1.00
    Язык : English
    Default : Да
    Forced : Нет
    Аудио
    Идентификатор : 2
    Формат : AC-3
    Формат/Информация : Audio Coding 3
    Расширение режима : CM (complete main)
    Параметр Endianness формата : Big
    Идентификатор кодека : A_AC3
    Продолжительность : 27 м.
    Вид битрейта : Постоянный
    Битрейт : 256 Кбит/сек
    Каналы : 2 канала
    Расположение каналов : Front: L R
    Частота : 48, 0 КГц
    Метод сжатия : С потерями
    Размер потока : 49, 8 Мбайт (9%)
    Default : Да
    Forced : Нет


    Скриншоты для ознакомления




    Онлайн видео Кухня (2016) WEB-DLRip [H.264



    Кухня (2016) WEB-DLRip [H.264/720p-LQ] (сезон 6, серии 1-2 из 20) (обновляемая)
    загрузка...
    Рейтинг →
     (голосов: 1, оценка 5/5, голосовать можно 1 раз )

    Другие торренты по теме:

  • Кухня. Последняя битва (2017) WEB-DLRip
  • Кухня. Последняя битва (2017) WEB-DLRip
  • Кухня (2014) WEB-DLRip [H.264 / 1080p-LQ] (Сезон 3, серии 1-20 из 20) скачать через торрент бесплатно
  • Кухня (2014) WEB-DLRip (Сезон 4, серии 1-2 из 20) (обновляемая)
  • Кухня (2014) WEB-DLRip [H.264 / 1080p-LQ] (Сезон 4, серии 1-2 из 20) (обновляемая)
  • Кухня (2014) WEB-DLRip [H.264 / 720p-LQ] (Сезон 4, серии 1-2 из 20) (обновляемая)
  • Кухня (2012-2014) WEB-DLRip [H.264 / 720p-LQ] [Сезон 1-4, Серия 1-75] (обновляемая)
  • Кухня (2015) WEB-DLRip (сезон 5, серии 1- из 20) (обновляемая) скачать через торрент бесплатно


    • Комментарии (0):

      Информация

      Информация

        Посетители, находящиеся в группе Гости, не могут оставлять комментарии в данной новости.

        ↓ Меню




        ↓ Опрос

        Вы добавили сайт в закладки?
        Да
        Нет


        Top 10 за месяц (Фильмы)