.
Авторизация | Регистрация
Хочешь лучшие торренты? Добавь свой email!
Добавить

Торрент скачать бесплатно

» » Выжить после (2016) DVB [H.264] (сезон 3, серии 1-7 из 12) (обновляемая) торрент скачать бесплатно




    Выжить после (2016) DVB [H.264] (сезон 3, серии 1-7 из 12) (обновляемая) торрент скачать бесплатно

    Опубликовал: Админ | Дата: 29-02-2016, 04:01 | Просмотров: 114

    Производство: Россия/Арт Пикчерс Вижн по заказу СТС
    Жанр: триллер
    Режиссер: Душан Глигоров, Александр Богуславский

    Актеры
    Иван Макаревич, Шамиль Хаматов, Галина Звягинцева, Дмитрий Ендальцев, Евгения Розанова, Сергей Годин, Любовь Аксёнова, Валерия Федорович, Ольга Новосад, Александр Галибин, Вероника Айги, Евгений Вильтовский, Бибигуль Суюншалина и др.

    Описание

    После восстания мутанток, в Москву были введены регулярные войска и подразделения МЧС. Началась зачистка города. Теперь Москва поделена на зоны: безопасные и те, где прячутся мурании — заражённые мутировавшие девушки. Борьба продолжается! Что будет с оставшимися в живых героями? Кто станет победителем в решающей схватке со злом?

    Продолжительность: ~00: 48: 00 серия
    Качество видео: DVB
    Видео: AVC/H.264, 720x576@784x576 (4: 3), ~2500 kbps
    Аудио: AC3, 2 ch, 192 kbps, CBR
    Код:
    Общее
    Уникальный идентификатор : 228426445327577315277997622483593484049 (0xABD955470020170EABF331B3819C5711)
    Полное имя : F:DOWNLOADSВыжить после (03 сезон любимого сериала) (2016) DVBВыжить после 3 - 01 серия.mkv
    Формат : Matroska
    Версия формата : Version 2
    Размер файла : 931 Мбайт
    Продолжительность : 47 м.
    Общий поток : 2736 Кбит/сек
    Дата кодирования : UTC 2016-02-27 10:53:52
    Программа кодирования : mkvmerge v7.8.0 (\'River Man\') 32bit built on Apr 3 2015 12:11:22
    Библиотека кодирования : libebml v1.3.1 + libmatroska v1.4.2
    Видео
    Идентификатор : 1
    Формат : AVC
    Формат/Информация : Advanced Video Codec
    Профиль формата : High@L3
    Параметр CABAC формата : Да
    Параметр ReFrames формата : 3 кадра
    Идентификатор кодека : V_MPEG4/ISO/AVC
    Продолжительность : 47 м.
    Битрейт : 2489 Кбит/сек
    Ширина : 720 пикселей
    Высота : 576 пикселей
    Соотношение сторон : 4:3
    Соотношение сторон в оригинале : 4:3
    Режим частоты кадров : Постоянный
    Частота кадров : 25, 000 кадров/сек
    Стандарт вещания : Component
    Цветовое пространство : YUV
    Субдискретизация насыщенности : 4:2:0
    Битовая глубина : 8 бит
    Тип развёртки : Чересстрочная
    Порядок развёртки : Верхнее поле первое
    Бит/(Пиксели*Кадры) : 0.240
    Размер потока : 847 Мбайт (91%)
    Default : Да
    Forced : Нет
    Цветовой диапазон : Limited
    Основные цвета : BT.601 PAL
    Характеристики трансфера : BT.470 System B, BT.470 System G
    Коэффициенты матрицы : BT.601
    Аудио
    Идентификатор : 2
    Формат : AC-3
    Формат/Информация : Audio Coding 3
    Расширение режима : CM (complete main)
    Параметр Endianness формата : Big
    Идентификатор кодека : A_AC3
    Продолжительность : 47 м.
    Вид битрейта : Постоянный
    Битрейт : 192 Кбит/сек
    Каналы : 2 канала
    Расположение каналов : Front: L R
    Частота : 48, 0 КГц
    Метод сжатия : С потерями
    Размер потока : 65, 3 Мбайт (7%)
    Default : Да
    Forced : Нет


    Скриншоты для ознакомления




    Онлайн видео Выжить после (2016) DVB [H.264] (сезон любимого сериала 3, серии 1



    Выжить после (2016) DVB [H.264] (сезон 3, серии 1-7 из 12) (обновляемая)
    загрузка...
    Рейтинг →
     (голосов: 1, оценка 4/5, голосовать можно 1 раз )

    Другие торренты по теме:

  • Выжить после (2016) SATRip (сезон 2, серии 1-5 из 12) (обновляемая)
  • Выжить После (2016) WEB-DLRip (сезон 2, серии 1-8 из 12) (обновляемая)
  • Выжить После (2016) SATRip (сезон 3, серии 1-2 из 12) (обновляемая)
  • Выжить после (2016) DVB [H.264] (сезон 2, серии 1-12 из 12)
  • Михаил Пантаев | Матанализ с человеческим лицом, или Как выжить после предельного перехода. Полный курс математического анализа. Том 1 (2015) [PDF]
  • Михаил Пантаев | Матанализ с человеческим лицом, или Как выжить после предельного перехода. Полный курс математического анализа. Том 2 (2016) [PDF]
  • Discovery. Выжить после селфи [1-2 серии из ] / Still Alive (2015) HDTVRip (Обновляемая)
  • Выжить после (2016) WEBRip (сезон 3, серии 1-12 из 12)


    • Комментарии (0):

      Информация

      Информация

        Посетители, находящиеся в группе Гости, не могут оставлять комментарии в данной новости.

        ↓ Меню




        ↓ Опрос

        Вы добавили сайт в закладки?
        Да
        Нет


        Top 10 за месяц (Фильмы)