.
Авторизация | Регистрация
Хочешь лучшие торренты? Добавь свой email!
Добавить

Торрент скачать бесплатно

» » Черная месса / Black Mass (2015) DVD9 торрент скачать бесплатно




    Черная месса / Black Mass (2015) DVD9 торрент скачать бесплатно

    Опубликовал: Админ | Дата: 29-02-2016, 04:01 | Просмотров: 63

    Производство: США, Великобритания
    Жанр: драма, криминал, биография
    Режиссер: Скотт Купер
    Продюсеры: Скотт Купер, Джон Лешер, Патрик МакКормик

    Актеры
    Джонни Депп, Джоэл Эдгертон, Бенедикт Камбербэтч, Кевин Бейкон, Джесси Племонс, Питер Сарсгаард, Кори Столл, Дакота Джонсон, Рори Кокрейн, Дэвид Харбор

    Описание

    Картина расскажет об Уайти Балджере, знаменитом бостонском гангстере, который 16 лет находился в бегах и был арестован в июне 2011 года в Санта-Монике. Балджер, которому уже за 80, обвинялся в рэкете, был замешан в 19 убийствах и в то же время работал информатором на ФБР. Самое интересное в это истории, что об этом Ван дамм ничего не знал. Чтобы не попасть за решетку, он исчез в 1995 году и 16 лет успешно скрывался от правосудия.

    Возраст: 18+ (зрителям, достигшим 18 лет. запрещено для детей)
    Рейтинг MPAA: R (лицам до 17 лет обязательно присутствие взрослого)
    Дата мировой премьеры: 4 сентября 2015
    Дата российской премьеры: 29 октября 2015, Каро-Премьер
    Дата выхода DVD/Blu-ray релиза: 31 декабря 2015, CP Дистрибуция

    Продолжительность: 01: 57: 15
    Качество видео: DVD9 (R5) CP Дистрибуция
    Перевод: Дублированный (лицензия)
    Субтитры: Вшитые отключаемые
    Язык субтитров: Русский, Английский, Болгарский, Латышский, Литовский, Польский, Словенский, Турецкий, Хорватский, Эстонский
    Доп. материалы: Джонни Депп в роли Уайти Балджере
    Видео: MPEG-2, 720x576@1024x576 (PAL 16: 9), ~ 5449 Kbps
    Аудио 1: Dolby AC3, 6 ch, 48.0 KHz, 384 Kbps Русский
    Аудио 2: Dolby AC3, 6 ch, 48.0 KHz, 384 Kbps Английский
    Аудио 3: Dolby AC3, 6 ch, 48.0 KHz, 384 Kbps Польский
    Аудио 4: Dolby AC3, 2 ch, 48.0 KHz, 192 Kbps Турецкий
    Код:
    Title: Чёрная месса.DVD9.nnm
    Size: 6.27 Gb ( 6 574 624, 00 KBytes ) - DVD-9
    Enabled regions: 1, 2, 3, 4, 5, 6
    VTS_01 :
    Play Length: 01:57:35+00:00:00+00:11:54
    Video: PAL 16:9 (720x576) VBR, Auto Letterboxed
    Audio:
    English (Dolby AC3, 6 ch)
    Polish (Dolby AC3, 6 ch)
    Russian (Dolby AC3, 6 ch)
    Turkish (Dolby AC3, 2 ch)
    English (Dolby AC3, 2 ch)
    Subtitles:
    English
    Bulgarian
    Hrvatski
    Estonian
    Latvian
    Lithuanian
    Polish
    Russian
    Serbian
    Slovenian
    Turkish
    Russian
    Turkish
    VTS_02 :
    Play Length: 00:00:10
    Video: PAL 16:9 (720x576) VBR, Auto Letterboxed
    Audio:
    Not specified (Dolby AC3, 6 ch)
    Subtitles:
    Not specified
    Код:
    Общее
    Полное имя : D:eRazdahciЧерная мессаЧёрная месса.DVD9.nnmVIDEO_TSVTS_01_3.VOB
    Формат : MPEG-PS
    Размер файла : 1024 Мбайт
    Продолжительность : 19 м.
    Режим общего битрейта : Переменный
    Общий поток : 7468 Кбит/сек
    Видео
    Идентификатор : 224 (0xE0)
    Формат : MPEG Video
    Версия формата : Version 2
    Профиль формата : Main@Main
    Параметр BVOP формата : Да
    Параметр матрицы формата : Выборочная
    Параметр GOP формата : M=2, N=12
    Продолжительность : 19 м.
    Вид битрейта : Переменный
    Битрейт : 5975 Кбит/сек
    Максимальный битрейт : 7500 Кбит/сек
    Ширина : 720 пикселей
    Высота : 576 пикселей
    Соотношение сторон : 16:9
    Частота кадров : 25, 000 кадров/сек
    Стандарт вещания : PAL
    Цветовое пространство : YUV
    Субдискретизация насыщенности : 4:2:0
    Битовая глубина : 8 бит
    Тип развёртки : Чересстрочная
    Порядок развёртки : Верхнее поле первое
    Метод сжатия : С потерями
    Бит/(Пиксели*Кадры) : 0.576
    Размер потока : 819 Мбайт (80%)
    Аудио #1
    Идентификатор : 189 (0xBD)-128 (0x80)
    Формат : AC-3
    Формат/Информация : Audio Coding 3
    Расширение режима : CM (complete main)
    Параметр Endianness формата : Big
    Режим смешивания : DVD-Video
    Продолжительность : 19 м.
    Вид битрейта : Постоянный
    Битрейт : 384 Кбит/сек
    Каналы : 6 каналов
    Расположение каналов : Front: L C R, Side: L R, LFE
    Частота : 48, 0 КГц
    Битовая глубина : 16 бит
    Метод сжатия : С потерями
    Задержка видео : -440 мс.
    Размер потока : 52, 7 Мбайт (5%)
    Аудио #2
    Идентификатор : 189 (0xBD)-129 (0x81)
    Формат : AC-3
    Формат/Информация : Audio Coding 3
    Расширение режима : CM (complete main)
    Параметр Endianness формата : Big
    Режим смешивания : DVD-Video
    Продолжительность : 19 м.
    Вид битрейта : Постоянный
    Битрейт : 384 Кбит/сек
    Каналы : 6 каналов
    Расположение каналов : Front: L C R, Side: L R, LFE
    Частота : 48, 0 КГц
    Битовая глубина : 16 бит
    Метод сжатия : С потерями
    Задержка видео : -440 мс.
    Размер потока : 52, 7 Мбайт (5%)
    Аудио #3
    Идентификатор : 189 (0xBD)-130 (0x82)
    Формат : AC-3
    Формат/Информация : Audio Coding 3
    Расширение режима : CM (complete main)
    Параметр Endianness формата : Big
    Режим смешивания : DVD-Video
    Продолжительность : 19 м.
    Вид битрейта : Постоянный
    Битрейт : 384 Кбит/сек
    Каналы : 6 каналов
    Расположение каналов : Front: L C R, Side: L R, LFE
    Частота : 48, 0 КГц
    Битовая глубина : 16 бит
    Метод сжатия : С потерями
    Задержка видео : -440 мс.
    Размер потока : 52, 7 Мбайт (5%)
    Аудио #4
    Идентификатор : 189 (0xBD)-131 (0x83)
    Формат : AC-3
    Формат/Информация : Audio Coding 3
    Профиль формата : Dolby Digital
    Расширение режима : CM (complete main)
    Параметр Endianness формата : Big
    Режим смешивания : DVD-Video
    Продолжительность : 19 м.
    Вид битрейта : Постоянный
    Битрейт : 192 Кбит/сек
    Каналы : 2 канала
    Расположение каналов : Front: L R
    Частота : 48, 0 КГц
    Битовая глубина : 16 бит
    Метод сжатия : С потерями
    Задержка видео : -440 мс.
    Размер потока : 26, 3 Мбайт (3%)
    Текст #1
    Идентификатор : 189 (0xBD)-32 (0x20)
    Формат : RLE
    Формат/Информация : Run-length encoding
    Режим смешивания : DVD-Video
    Текст #2
    Идентификатор : 189 (0xBD)-33 (0x21)
    Формат : RLE
    Формат/Информация : Run-length encoding
    Режим смешивания : DVD-Video
    Текст #3
    Идентификатор : 189 (0xBD)-34 (0x22)
    Формат : RLE
    Формат/Информация : Run-length encoding
    Режим смешивания : DVD-Video
    Текст #4
    Идентификатор : 189 (0xBD)-35 (0x23)
    Формат : RLE
    Формат/Информация : Run-length encoding
    Режим смешивания : DVD-Video
    Текст #5
    Идентификатор : 189 (0xBD)-36 (0x24)
    Формат : RLE
    Формат/Информация : Run-length encoding
    Режим смешивания : DVD-Video
    Текст #6
    Идентификатор : 189 (0xBD)-37 (0x25)
    Формат : RLE
    Формат/Информация : Run-length encoding
    Режим смешивания : DVD-Video
    Текст #7
    Идентификатор : 189 (0xBD)-38 (0x26)
    Формат : RLE
    Формат/Информация : Run-length encoding
    Режим смешивания : DVD-Video
    Текст #8
    Идентификатор : 189 (0xBD)-39 (0x27)
    Формат : RLE
    Формат/Информация : Run-length encoding
    Режим смешивания : DVD-Video
    Текст #9
    Идентификатор : 189 (0xBD)-40 (0x28)
    Формат : RLE
    Формат/Информация : Run-length encoding
    Режим смешивания : DVD-Video
    Текст #10
    Идентификатор : 189 (0xBD)-42 (0x2A)
    Формат : RLE
    Формат/Информация : Run-length encoding
    Режим смешивания : DVD-Video
    Меню


    Скриншоты для ознакомления




    Онлайн видео Черная месса



    Черная месса/Black Mass (2015) DVD9
    загрузка...
    Рейтинг →
     (голосов: 1, оценка 3/5, голосовать можно 1 раз )

    Другие торренты по теме:

  • Черная месса / Black Mass (2015) WEBRip [1080p] [Трейлер] скачать через торрент бесплатно
  • Черная месса / Black Mass (2015) WEBRip [EN / CH Sub] скачать через торрент бесплатно
  • Черная месса / Black Mass (2015) WEBRip [H.264 / 720p-LQ] скачать через торрент бесплатно
  • Черная месса / Black Mass (2015) WEBRip [H.264] скачать через торрент бесплатно
  • Черная месса / Black Mass (2015) WEBRip [H.264 / 1080p-LQ] скачать через торрент бесплатно
  • Черная месса / Black Mass (2015) WEBRip [Звук с CamRip] скачать через торрент бесплатно
  • Черная месса / Black Mass (2015) WEB-DLRip [H.264] [Line]
  • Черная месса / Black Mass (2015) WEB-DLRip [Line]


    • Комментарии (0):

      Информация

      Информация

        Посетители, находящиеся в группе Гости, не могут оставлять комментарии в данной новости.

        ↓ Меню




        ↓ Опрос

        Вы добавили сайт в закладки?
        Да
        Нет


        Top 10 за месяц (Фильмы)