.
Авторизация | Регистрация
Хочешь лучшие торренты? Добавь свой email!
Добавить

Торрент скачать бесплатно

» » Настолько раздеты, что никакого стыда... / Spogliamoci cosi, senza pudor... (1976) DVDRip [H.264] [VO] торрент скачать бесплатно




    Настолько раздеты, что никакого стыда... / Spogliamoci cosi, senza pudor... (1976) DVDRip [H.264] [VO] торрент скачать бесплатно

    Опубликовал: Админ | Дата: 29-02-2016, 04:01 | Просмотров: 67

    Производство: Италия/Medusa Distribuzione
    Жанр: Комедия, Эротика
    Режиссер: Серджо Мартино

    Актеры
    Урсула Андресс, Барбара Буше, Джонни Дорелли, Альберто Лионелло, Альдо Маччоне, Энрико Монтезано, Джанрико Тедески, Бренда Уэлш, Надя Кассини, Нинетто Даволи, Джанфранко Барра, Альваро Витали, Армандо Бранча, Риа Де Симоне

    Описание

    Сюжет картины составили четыре самостоятельных новеллы, снятые в жанре эротических киноанекдотов. О таком странном сюжете не догадывалась даже Светлана Лобода. В центре первой истории — частный детектив, выслеживающий жену по заказу своего клиента. Во второй новелле молодой человек оказывается членом женской команды по футболу. В третьей истории — амурные приключения, поджидавшие вора, решившего проникнуть в богатый дом в запертом шкафу. Четвёртая новелла о знатной даме, пытавшейся лечь в постель со своим любовником в день смерти соседа.

    Продолжительность: 01: 43: 43
    Качество видео: DVDRip
    Перевод: Одноголосый закадровый, любительский
    Язык субтитров: Русский
    Вид субтитров: Вшитые отключаемые
    Видео: AVC/H.264, 720x400, ~1620 Kbps
    Аудио 1: Русский, AC3, 2 ch, 192 Kbps, 48.0 kHz
    Аудио 2: Итальянский, AC3, 1 ch, 192 Kbps, 48.0 kHz
    Код:

    General
    Unique ID : 175545227016953303086200292476120745508 (0x8410C7EB11B3BC81B5DE09DA76544624)
    Complete name : F:DownloadsНастолько раздеты, что никакого стыда....mkv
    Format : Matroska
    Format version : Version 4/Version 2
    File size : 1.46 GiB
    Duration : 1h 43mn
    Overall bit rate : 2 010 Kbps
    Encoded date : UTC 2016-02-08 05:03:19
    Writing application : mkvmerge v7.0.0 (\'Where We Going\') 32bit built on Jun 9 2014 15:08:34
    Writing library : libebml v1.3.0 + libmatroska v1.4.1
    DURATION : 01:41:37.063000000
    NUMBER_OF_FRAMES : 1902
    NUMBER_OF_BYTES : 3550494
    _STATISTICS_WRITING_APP : mkvmerge v7.0.0 (\'Where We Going\') 32bit built on Jun 9 2014 15:08:34
    _STATISTICS_WRITING_DATE_UTC : 2016-02-08 05:03:19
    _STATISTICS_TAGS : BPS DURATION NUMBER_OF_FRAMES NUMBER_OF_BYTES
    Video
    ID : 1
    Format : AVC
    Format/Info : Advanced Video Codec
    Format profile :High@L3.1
    Format settings, CABAC : Yes
    Format settings, ReFrames : 8 frames
    Codec ID : V_MPEG4/ISO/AVC
    Duration : 1h 43mn
    Bit rate : 1 620 Kbps
    Width : 720 pixels
    Height : 400 pixels
    Display aspect ratio : 16:9
    Frame rate mode : Constant
    Frame rate : 25.000 fps
    Color space : YUV
    Chroma subsampling : 4:2:0
    Bit depth : 8 bits
    Scan type : Progressive
    Bits/(Pixel*Frame) : 0.225
    Stream size : 1.15 GiB (79%)
    Title : Spogliamoci così, senza pudor...
    Writing library : x264 core 125 r2208 d9d2288
    Encoding settings : cabac=1/ref=8/deblock=1:-1:-1/analyse=0x3:0x133/me=umh/subme=9/psy=1/psy_rd=1.00:0.10/mixed_ref=1/me_range=32/chroma_me=1/trellis=2/8x8dct=1/cqm=0/deadzone=21, 11/fast_pskip=0/chroma_qp_offset=-3/threads=6/lookahead_threads=1/sliced_threads=0/nr=0/decimate=1/interlaced=0/bluray_compat=0/constrained_intra=0/bframes=3/b_pyramid=2/b_adapt=2/b_bias=0/direct=3/weightb=1/open_gop=0/weightp=2/keyint=250/keyint_min=25/scenecut=40/intra_refresh=0/rc_lookahead=60/rc=2pass/mbtree=1/bitrate=1620/ratetol=1.0/qcomp=0.60/qpmin=0/qpmax=69/qpstep=4/cplxblur=20.0/qblur=0.5/ip_ratio=1.40/aq=1:1.00
    Language : Italian
    Default : Yes
    Forced : No
    Audio #1
    ID : 2
    Format : AC-3
    Format/Info : Audio Coding 3
    Mode extension : CM (complete main)
    Format settings, Endianness : Big
    Codec ID : A_AC3
    Duration : 1h 43mn
    Bit rate mode : Constant
    Bit rate : 192 Kbps
    Channel(s) : 2 channels
    Channel positions : Front: L R
    Sampling rate : 48.0 KHz
    Bit depth : 16 bits
    Compression mode : Lossy
    Stream size : 142 MiB (10%)
    Title : Одноголосый закадровый
    Language : Russian
    Default : Yes
    Forced : No
    Audio #2
    ID : 3
    Format : AC-3
    Format/Info : Audio Coding 3
    Mode extension : CM (complete main)
    Format settings, Endianness : Big
    Codec ID : A_AC3
    Duration : 1h 43mn
    Bit rate mode : Constant
    Bit rate : 192 Kbps
    Channel(s) : 1 channel
    Channel positions : Front: C
    Sampling rate : 48.0 KHz
    Bit depth : 16 bits
    Compression mode : Lossy
    Stream size : 142 MiB (10%)
    Title : Оригинал
    Language : Italian
    Default : No
    Forced : No
    Text
    ID : 4
    Format : VobSub
    Muxing mode : zlib
    Codec ID : S_VOBSUB
    Codec ID/Info : The same subtitle format used on DVDs
    Title : Русские, Антон Каптелов
    Language : Russian
    Default : No
    Forced : No


    Скриншоты для ознакомления




    Онлайн видео Настолько раздеты, что никакого стыда...



    Настолько раздеты, что никакого стыда.../Spogliamoci cosi, senza pudor... (1976) DVDRip [H.264] [VO]
    загрузка...
    Рейтинг →
     (голосов: 1, оценка 5/5, голосовать можно 1 раз )

    Другие торренты по теме:



      Комментарии (0):

      Информация

      Информация

        Посетители, находящиеся в группе Гости, не могут оставлять комментарии в данной новости.

        ↓ Меню




        ↓ Опрос

        Вы добавили сайт в закладки?
        Да
        Нет


        Top 10 за месяц (Фильмы)