.
Авторизация | Регистрация
Хочешь лучшие торренты? Добавь свой email!
Добавить

Торрент скачать бесплатно

» » Учитель (1939) SATRip [H.264] [Редакция 1963 г.] торрент скачать бесплатно




    Учитель (1939) SATRip [H.264] [Редакция 1963 г.] торрент скачать бесплатно

    Опубликовал: Админ | Дата: 27-02-2016, 04:00 | Просмотров: 37

    Производство: СССР, Ленфильм
    Жанр: Мелодрама
    Режиссер: Сергей Герасимов, Роман Тихомиров

    Актеры
    Борис Чирков, Тамара Макарова, Павел Волков, Вера Померанцева, Людмила Шабалина, Валентина Телегина, Михаил Екатерининский, С. Шинкевич, В. Замятин, Николай Сунозов, Иван Назаров, Александра Матвеева, О. Коровацкий, С. Онуфриев, Александр Кулаков...

    Описание

    Рассказ о молодом учителе, приехавшем на работу в родное село, где ему удалось завоевать всеобщее признание и обрести личное счастье. Его учениками становятся не только дети, но и взрослые. Кто создал мир? Как стать счастливым? На все вопросы учитель Степан Иванович готов дать ответ.

    Релиз от :

    Продолжительность: 01: 36: 59
    Качество видео: SATRip
    Видео: AVC/H.264, 692x574@738x574, ~3173 kbps
    Аудио: MP2, 2 ch, 192 kbps, CBR
    Код:

    Общее
    Уникальный идентификатор : 227026564866190017733669283315609197608 (0xAACBB9D78350BAF39434C8DA88EF5C28)
    Полное имя : D:-TTTУчитель-Sat-MG-NNM.mkv
    Формат : Matroska
    Версия формата : Version 4/Version 2
    Размер файла : 2, 28 Гбайт
    Продолжительность : 1 ч. 36 м.
    Общий поток : 3367 Кбит/сек
    Дата кодирования : UTC 2016-02-16 09:25:22
    Программа кодирования : mkvmerge v8.8.0 (\'Wind at my back\') 32bit
    Библиотека кодирования : libebml v1.3.3 + libmatroska v1.4.4
    Видео
    Идентификатор : 1
    Формат : AVC
    Формат/Информация : Advanced Video Codec
    Профиль формата :High@L4.1
    Параметр CABAC формата : Да
    Параметр ReFrames формата : 14 кадров
    Идентификатор кодека : V_MPEG4/ISO/AVC
    Продолжительность : 1 ч. 36 м.
    Битрейт : 3173 Кбит/сек
    Ширина : 692 пикселя
    Высота : 574 пикселя
    Соотношение сторон : 1, 286
    Режим частоты кадров : Постоянный
    Частота кадров : 25, 000 кадров/сек
    Цветовое пространство : YUV
    Субдискретизация насыщенности : 4:2:0
    Битовая глубина : 8 бит
    Тип развёртки : Прогрессивная
    Бит/(Пиксели*Кадры) : 0.320
    Размер потока : 2, 15 Гбайт (94%)
    Заголовок : FomaTash for nnm-club.me
    Библиотека кодирования : x264 core 146 r2538 121396c
    Настройки программы : cabac=1/ref=14/deblock=1:-1:-1/analyse=0x3:0x133/me=umh/subme=9/psy=1/psy_rd=1.00:0.15/mixed_ref=1/me_range=32/chroma_me=1/trellis=2/8x8dct=1/cqm=0/deadzone=21, 11/fast_pskip=1/chroma_qp_offset=-3/threads=6/lookahead_threads=1/sliced_threads=0/nr=0/decimate=0/interlaced=0/bluray_compat=0/constrained_intra=0/bframes=12/b_pyramid=2/b_adapt=2/b_bias=0/direct=3/weightb=1/open_gop=0/weightp=2/keyint=240/keyint_min=23/scenecut=40/intra_refresh=0/rc_lookahead=40/rc=2pass/mbtree=0/bitrate=3173/ratetol=1.0/qcomp=0.60/qpmin=10/qpmax=51/qpstep=4/cplxblur=20.0/qblur=0.5/vbv_maxrate=50000/vbv_bufsize=62500/nal_hrd=none/filler=0/ip_ratio=1.40/pb_ratio=1.30/aq=1:1.00
    Язык : Russian
    Default : Да
    Forced : Нет
    Аудио
    Идентификатор : 2
    Формат : MPEG Audio
    Версия формата : Version 1
    Профиль формата : Layer 2
    Идентификатор кодека : A_MPEG/L2
    Идентификатор кодека/Подсказка : MP2
    Продолжительность : 1 ч. Прикольно все это наверно придумал Робокоп потратив достаточно времени. 36 м.
    Вид битрейта : Постоянный
    Битрейт : 192 Кбит/сек
    Каналы : 2 канала
    Частота : 48, 0 КГц
    Частота кадров : 41, 667 кадра/сек (1152 spf)
    Метод сжатия : С потерями
    Размер потока : 133 Мбайт (6%)
    Заголовок : MP2-2 канала
    Язык : Russian
    Default : Да
    Forced : Нет


    Скриншоты для ознакомления




    Онлайн видео Страсти по Андрею (1966) BDRip [H.264



    Учитель (1939) SATRip [H.264] [Редакция 1963 г.]
    загрузка...
    Рейтинг →
     (голосов: 1, оценка 3/5, голосовать можно 1 раз )

    Другие торренты по теме:

  • Сельский учитель (2015) SATRip (серии 1-8 из 8) скачать через торрент бесплатно
  • Я - Учитель (2016) SATRip
  • Антон Чехов - Учитель словесности (1965) SATRip


    • Комментарии (0):

      Информация

      Информация

        Посетители, находящиеся в группе Гости, не могут оставлять комментарии в данной новости.

        ↓ Меню




        ↓ Опрос

        Вы добавили сайт в закладки?
        Да
        Нет


        Top 10 за месяц (Фильмы)