.
Авторизация | Регистрация
Хочешь лучшие торренты? Добавь свой email!
Добавить

Торрент скачать бесплатно

» » Страсти по Андрею (1966) DVDRip [H.264] [Режиссёрская версия] торрент скачать бесплатно




    Страсти по Андрею (1966) DVDRip [H.264] [Режиссёрская версия] торрент скачать бесплатно

    Опубликовал: Админ | Дата: 27-02-2016, 04:00 | Просмотров: 29

    Производство: СССР, Мосфильм
    Жанр: Драма, Приключения, Военный
    Режиссер: Андрей Тарковский

    Актеры
    Анатолий Солоницын, Иван Лапиков, Николай Гринько, Николай Бурляев

    Описание

    Русь начала XV века. Страну раздирают княжеские междоусобицы. Набеги татар, голод и мор преследуют народ… В эту трагическую эпоху появляется на Руси великий живописец, жизни и творчеству которого посвящен фильм.
    Сведения о нем скудны и отрывочны. Лишь немногие творения гениального мастера дошли до нас. Авторы фильма стремились воссоздать духовный мир Андрея Рублева.
    История жизни, творчества, душевных метаний величайшего иконописца Андрея Рублева на фоне исторических событий в терзаемой междоусобицей феодальной Руси. Фильм, запрещенный к показу в СССР, был нелегально показан на Каннском фестивале в 1969 году, произвел там сенсацию и был продан во многие страны мира. В СССР картина вышла в 1971 году. По сей день Андрей Рублев (оригинальное название: Страсти по Андрею) является одной из вершин русской кинематографии с целым созвездием потрясающих актеров. По опросу международных кинокритиков фильм включен в 100 лучших фильмов за всю историю кинематографа.

    Продолжительность: 03: 26: 00
    Качество видео: DVDRip
    Видео: Xvid, 720x304 (2, 35: 1), ~1 914 Kbps, 23.976 fps
    Аудио: AC3, 1 ch, 96.0 Kbps, 48.0 KHz, CBR
    Код:

    General
    Complete name : G:Download_GАндрей Рублев.avi
    Format : AVI
    Format/Info : Audio Video Interleave
    Format profile : OpenDML
    File size : 2.90 GiB
    Duration : 3h 26mn
    Overall bit rate : 2 017 Kbps
    Writing application : VirtualDubMod 1.5.4.1 (build 2178/release)
    Writing library : VirtualDubMod build 2178/release
    Video
    ID : 0
    Format : MPEG-4 Visual
    Format profile : Advanced Simple@L5
    Format settings, BVOP : No
    Format settings, QPel : No
    Format settings, GMC : No warppoints
    Format settings, Matrix : Custom
    Codec ID : XVID
    Codec ID/Hint : XviD
    Duration : 3h 26mn
    Bit rate : 1 914 Kbps
    Width : 720 pixels
    Height : 304 pixels
    Display aspect ratio : 2.35:1
    Frame rate : 23.976 fps
    Color space : YUV
    Chroma subsampling : 4:2:0
    Bit depth : 8 bits
    Scan type : Progressive
    Compression mode : Lossy
    Bits/(Pixel*Frame) : 0.365
    Stream size : 2.75 GiB (95%)
    Writing library : XviD 1.2.1 (UTC 2008-12-04)
    Audio
    ID : 1
    Format : AC-3
    Format/Info : Audio Coding 3
    Mode extension : CM (complete main)
    Format settings, Endianness : Big
    Codec ID : 2000
    Duration : 3h 26mn
    Bit rate mode : Constant
    Bit rate : 96.0 Kbps
    Channel(s) : 1 channel
    Channel positions : Front: C
    Sampling rate : 48.0 KHz
    Compression mode : Lossy
    Stream size : 141 MiB (5%)
    Alignment : Split accross interleaves
    Interleave, duration : 96 ms (2.30 video frames)
    Interleave, preload duration : 96 ms


    Скриншоты для ознакомления




    Онлайн видео Служили два товарища (1968) HDTV [H.264



    Страсти по Андрею (1966) DVDRip [H.264] [Режиссёрская версия]
    загрузка...
    Рейтинг →
     (голосов: 1, оценка 3/5, голосовать можно 1 раз )

    Другие торренты по теме:

  • Страсти по Андрею (1966) BDRip [H.264 / 720p]


    • Комментарии (0):

      Информация

      Информация

        Посетители, находящиеся в группе Гости, не могут оставлять комментарии в данной новости.

        ↓ Меню




        ↓ Опрос

        Вы добавили сайт в закладки?
        Да
        Нет


        Top 10 за месяц (Фильмы)