.
Авторизация | Регистрация
Хочешь лучшие торренты? Добавь свой email!
Добавить

Торрент скачать бесплатно

» » Ворошиловский стрелок (1999) DVDRip [H.264] торрент скачать бесплатно




    Ворошиловский стрелок (1999) DVDRip [H.264] торрент скачать бесплатно

    Опубликовал: Админ | Дата: 26-02-2016, 04:01 | Просмотров: 60

    Не ради мести, а во имя справедливости...
    Производство: Россия, Кинокомпания НТВ-Профит
    Жанр: Драма, Криминал
    Год выпуска: 1999
    Режиссер: Станислав Говорухин
    Сценарий: Александр Бородянский, Станислав Говорухин, Юрий Поляков, Виктор Пронин
    Оператор: Геннадий Энгстрем
    Композитор: Владимир Дашкевич

    Актеры
    Михаил Ульянов, Анна Синякина, Александр Пороховщиков, Сергей Гармаш, Ирина Розанова, Марат Башаров, Илья Древнов, Алексей Макаров, Владислав Галкин, Георгий Мартиросян, Сергей Апрельский, Алексей Шевченков, Владимир Семаго, Павел Савчук, Владимир Романовский, Олег Хатюшенко, Вячеслав Голоднов, Алексей Гольцов, Анна Портная, Роза Якимова, Олег Комаров, Павел Фетисов, Магомед Льянов, Карен Мурадян

    Описание

    Пенсионер, железнодорожник в отставке, скромно живёт со своей внучкой Катей. В соседнем доме постоянно собираются трое молодых бездельников, чувствующие себя безнаказанными хозяевами жизни. Однажды они хитростью заманили Катю к себе, где изнасиловали. Поначалу насильников арестовывают, однако отец одного из них — большой милицейский начальник — освобождает их. Не добившись справедливости законным путём, Иван Фёдорович покупает оружие у местной мафии, после чего сам становится судьёй. Когда, казалось, его поймают с поличным, на выручку пришёл честный участковый…

    Продолжительность: 01: 34: 40
    Качество видео: DVDRip H.264
    Субтитры: Русские, Английские; вшитые, отключаемые
    Исходник: DVD5
    Контейнер: MKV
    Видео: AVC/H.264, 720x572, ~2650 Kbps
    Аудио: AC3, 6 ch, 448.00 kbps
    Аудио: AC3, 2 ch, 192.00 kbps
    Релиз от: ExKinoRey
    Код:

    General
    Unique ID : 250980597910827363937914615969268935820 (0xBCD11ADA92D3511BB41804DA3710AC8C)
    Complete name : Ворошиловский стрелок_1999-DVDRip-AVC.mkv
    Format : Matroska
    Format version : Version 2
    File size : 2.18 GiB
    Duration : 1h 34mn
    Overall bit rate : 3 292 Kbps
    Movie name : Ворошиловский стрелок (1999) [tRuAVC]
    Encoded by : [tRuAVC]Skazhutin
    Released date : September 20th 2009
    Encoded date : UTC 2016-02-24 07:24:24
    Writing application : mkvmerge v5.8.0 (\'No Sleep/Pillow\') built on Sep 2 2012 15:37:04
    Writing library : libebml v1.2.3 + libmatroska v1.3.0
    Comment : DVDRip/x264/AAC (Source: PAL 4:3 (720x576) VBR)
    Video
    ID : 1
    Format : AVC
    Format/Info : Advanced Video Codec
    Format profile :High@L4.1
    Format settings, CABAC : Yes
    Format settings, ReFrames : 14 frames
    Codec ID : V_MPEG4/ISO/AVC
    Duration : 1h 34mn
    Bit rate : 2 650 Kbps
    Width : 720 pixels
    Height : 572 pixels
    Display aspect ratio : 4:3
    Frame rate mode : Constant
    Frame rate : 25.000 fps
    Color space : YUV
    Chroma subsampling : 4:2:0
    Bit depth : 8 bits
    Scan type : Progressive
    Bits/(Pixel*Frame) : 0.257
    Stream size : 1.71 GiB (79%)
    Writing library : x264 core 148 r2638 7599210
    Encoding settings : cabac=1/ref=14/deblock=1:-2:-2/analyse=0x3:0x133/me=umh/subme=10/psy=1/psy_rd=1.05:0.13/mixed_ref=1/me_range=32/chroma_me=1/trellis=2/8x8dct=1/cqm=0/deadzone=21, 11/fast_pskip=0/chroma_qp_offset=-3/threads=12/lookahead_threads=2/sliced_threads=0/nr=0/decimate=0/interlaced=0/bluray_compat=0/constrained_intra=0/bframes=8/b_pyramid=2/b_adapt=2/b_bias=0/direct=3/weightb=1/open_gop=0/weightp=2/keyint=250/keyint_min=25/scenecut=40/intra_refresh=0/rc=2pass/mbtree=0/bitrate=2650/ratetol=1.0/qcomp=0.63/qpmin=0/qpmax=39/qpstep=4/cplxblur=20.0/qblur=0.5/ip_ratio=1.40/pb_ratio=1.30/aq=1:1.00
    Language : English
    Default : Yes
    Forced : No
    Color range : Limited
    Color primaries : BT.601 PAL
    Transfer characteristics : BT.470 System B, BT.470 System G
    Matrix coefficients : BT.601
    Audio #1
    ID : 2
    Format : AC-3
    Format/Info : Audio Coding 3
    Mode extension : CM (complete main)
    Format settings, Endianness : Big
    Codec ID : A_AC3
    Duration : 1h 34mn
    Bit rate mode : Constant
    Bit rate : 448 Kbps
    Channel(s) : 6 channels
    Channel positions : Front: L C R, Side: L R, LFE
    Sampling rate : 48.0 KHz
    Frame rate : 31.250 fps (1536 spf)
    Compression mode : Lossy
    Stream size : 303 MiB (14%)
    Language : Russian
    Default : Yes
    Forced : No
    Audio #2
    ID : 3
    Format : AC-3
    Format/Info : Audio Coding 3
    Mode extension : CM (complete main)
    Format settings, Endianness : Big
    Codec ID : A_AC3
    Duration : 1h 34mn
    Bit rate mode : Constant
    Bit rate : 192 Kbps
    Channel(s) : 2 channels
    Channel positions : Front: L R
    Sampling rate : 48.0 KHz
    Frame rate : 31.250 fps (1536 spf)
    Compression mode : Lossy
    Stream size : 130 MiB (6%)
    Language : Russian
    Default : No
    Forced : No
    Text #1
    ID : 4
    Format : UTF-8
    Codec ID : S_TEXT/UTF8
    Codec ID/Info : UTF-8 Plain Text
    Language : Russian
    Default : No
    Forced : No
    Text #2
    ID : 5
    Format : UTF-8
    Codec ID : S_TEXT/UTF8
    Codec ID/Info : UTF-8 Plain Text
    Language : English
    Default : No
    Forced : No
    Menu
    00:00:00.000 : en:Chapter 1
    00:05:29.680 : en:Chapter 2
    00:09:53.840 : en:Chapter 3
    00:14:10.720 : en:Chapter 4
    00:20:54.240 : en:Chapter 5
    00:24:35.240 : en:Chapter 6
    00:27:38.800 : en:Chapter 7
    00:33:36.560 : en:Chapter 8
    00:37:57.080 : en:Chapter 9
    00:39:33.280 : en:Chapter 10
    00:42:54.000 : en:Chapter 11
    00:46:02.240 : en:Chapter 12
    00:49:28.160 : en:Chapter 13
    00:55:47.240 : en:Chapter 14
    01:00:15.560 : en:Chapter 15
    01:03:36.800 : en:Chapter 16
    01:06:32.040 : en:Chapter 17
    01:09:37.160 : en:Chapter 18
    01:13:35.320 : en:Chapter 19
    01:16:52.920 : en:Chapter 20
    01:21:20.720 : en:Chapter 21
    01:24:40.920 : en:Chapter 22
    01:27:17.440 : en:Chapter 23
    01:32:03.960 : en:Chapter 24


    Скриншоты для ознакомления




    Онлайн видео 30 свиданий (2015) WEB



    Ворошиловский стрелок (1999) DVDRip [H.264]
    загрузка...
    Рейтинг →
     (голосов: 1, оценка 3/5, голосовать можно 1 раз )

    Другие торренты по теме:

  • Ворошиловский стрелок (1999) WEB-DL [H.264 / 720p-LQ] скачать через торрент бесплатно
  • Ворошиловский стрелок (1999) WEB-DLRip [H.264 / 1080p]


    • Комментарии (0):

      Информация

      Информация

        Посетители, находящиеся в группе Гости, не могут оставлять комментарии в данной новости.

        ↓ Меню




        ↓ Опрос

        Вы добавили сайт в закладки?
        Да
        Нет


        Top 10 за месяц (Фильмы)