.
Авторизация | Регистрация
Хочешь лучшие торренты? Добавь свой email!
Добавить

Торрент скачать бесплатно

» » Ночной администратор / The Night Manager (2016) WEB-DLRip (сезон 1, серии 1 из 6) LostFilm (обновляемая) торрент скачать бесплатно




    Ночной администратор / The Night Manager (2016) WEB-DLRip (сезон 1, серии 1 из 6) LostFilm (обновляемая) торрент скачать бесплатно

    Опубликовал: Админ | Дата: 25-02-2016, 04:00 | Просмотров: 1327

    Производство: Великобритания, США/Ink Factory, The, British Broadcasting Corporation (BBC), Demarest Films
    Жанр: боевик, триллер, драма
    Режиссер: Сюзанна Бир

    Актеры
    Том Хиддлстон, Хью Лори, Элизабет Дебики, Оливия Колман, Том Холландер, Кэтерин Келли, Майкл Нардон, Алистэр Петри, Джонатан Арис, Дэвид Хэрвуд и др.

    Описание

    Сериал Ночной администратор (The Night Manager) представляет собой экранизацию романа, ставшего бестселлером во многих странах мира.
    Покинувший службу военный ищет покоя в гражданской жизни и, в поисках уединения, отправляется в Цюрих, где достаточно быстро находит работу. Теперь он — ночной администратор в одном из самых знаменитых отелей мира. Но совсем скоро герой начинает понимать, что внешне благопристойная гостиница оказывается настоящей штаб-квартирой преступного синдиката, снабжающего оружием всю Европу. И теперь только от него зависит, будет шайка контрабандистов и дальше продолжать свои махинации или получит по заслугам. Какой же выбор сделает отставник Пайн?

    Дата мировой премьеры: 21 февраля 2016
    Дата премьеры в РФ: 22 февраля 2016
    Продолжительность: ~00: 58: 00 серия
    Качество видео: WEB-DLRip
    Перевод: Многоголосый закадровый, профессиональный -LostFilm
    Видео: XviD, 720x400 (16: 9), ~1500 kb/s
    Аудио Rus: MPEG Layer 3, 48, 0 kHz, 2 ch, 128 kb/s - многоголосый закадровый
    Аудио Eng: MPEG Layer 3, 48, 0 kHz, 2 ch, 128 kb/s - оригинал
    Общее
    Полное имя : D: Ночной администратор (сезон любимого сериала 1) The Night Manager (2016) WEB-DLRip - LostFilmThe.Night.Manager.S01E01.WEB-DLRip.Rus.Eng.DV.LostFilm.avi
    Формат : AVI
    Формат/Информация : Audio Video Interleave
    Размер файла : 732 Мбайт
    Продолжительность : 57 м.
    Общий поток : 1779 Кбит/сек
    Программа кодирования : VirtualDubModRus 1.5.10.2 (build 2542/release)
    Библиотека кодирования : VirtualDubMod build 2542/release
    Видео
    Идентификатор : 0
    Формат : MPEG-4 Visual
    Профиль формата : Advanced Simple@L5
    Параметр BVOP формата : 2
    Параметр QPel формата : Нет
    Параметр GMC формата : Без точки перехода
    Параметр матрицы формата : Default (H.263)
    Идентификатор кодека : XVID
    Идентификатор кодека/Подсказка : XviD
    Продолжительность : 57 м.
    Битрейт : 1509 Кбит/сек
    Ширина : 720 пикселей
    Высота : 400 пикселей
    Соотношение сторон : 16: 9
    Частота кадров : 25, 000 кадров/сек
    Цветовое пространство : YUV
    Субдискретизация насыщенности : 4: 2: 0
    Битовая глубина : 8 бит
    Тип развёртки : Прогрессивная
    Метод сжатия : С потерями
    Бит/(Пиксели*Кадры) : 0.210
    Размер потока : 621 Мбайт (85%)
    Заголовок : Rip by DriverV/NNM-Club
    Библиотека кодирования : XviD 64
    Аудио #1
    Идентификатор : 1
    Формат : MPEG Audio
    Версия формата : Version 1
    Профиль формата : Layer 3
    Режим : Joint stereo
    Расширение режима : MS Stereo
    Идентификатор кодека : 55
    Идентификатор кодека/Подсказка : MP3
    Продолжительность : 57 м.
    Вид битрейта : Постоянный
    Битрейт : 128 Кбит/сек
    Каналы : 2 канала
    Частота : 48, 0 КГц
    Метод сжатия : С потерями
    Задержка видео : 1 с. 100 мс.
    Размер потока : 52, 7 Мбайт (7%)
    Выравнивание : Разделение по промежуткам
    Продолжительность промежутка : 40 мс. Прикольно все это наверно придумал Чак Норрис потратив достаточно времени. (1, 00 видеокадр)
    Время предзагрузки промежутка : 500 мс.
    Аудио #2
    Идентификатор : 2
    Формат : MPEG Audio
    Версия формата : Version 1
    Профиль формата : Layer 3
    Режим : Joint stereo
    Расширение режима : MS Stereo
    Идентификатор кодека : 55
    Идентификатор кодека/Подсказка : MP3
    Продолжительность : 57 м.
    Вид битрейта : Постоянный
    Битрейт : 128 Кбит/сек
    Каналы : 2 канала
    Частота : 48, 0 КГц
    Метод сжатия : С потерями
    Размер потока : 52, 7 Мбайт (7%)
    Выравнивание : Разделение по промежуткам
    Продолжительность промежутка : 40 мс. (1, 00 видеокадр)
    Время предзагрузки промежутка : 500 мс.


    Скриншоты для ознакомления




    Онлайн видео Ночной администратор



    Ночной администратор/The Night Manager (2016) WEB-DLRip (сезон 1, серии 1 из 6) LostFilm (обновляемая)
    загрузка...
    Рейтинг →
     (голосов: 1, оценка 5/5, голосовать можно 1 раз )

    Другие торренты по теме:

  • Ночной администратор / The Night Manager (2016) WEB-DLRip (сезон 1, серии 1 из 6) NewStudio (обновляемая)
  • Ночной администратор / The Night Manager (2016) WEB-DL [H.264 / 1080p-LQ] (сезон 1, серии 1 из 6) AMC (обновляемая)
  • Ночной администратор / The Night Manager (2016) WEB-DLRip (сезон 1, серии 1 из 6) AMC (обновляемая)
  • Ночной администратор / The Night Manager (2016) WEB-DL [H.264 / 1080p-LQ] (сезон 1, серии 1 из 6) LostFilm (обновляемая)
  • Ночной администратор / The Night Manager (2016) WEB-DL [H.264 / 720p-LQ] (сезон 1, серии 1-2 из 6) NewStudio (обновляемая)
  • Ночной администратор / The Night Manager (2016) WEB-DL [H.264 / 720p-LQ] (сезон 1, серии 1-6 из 6) Jaskier
  • Ночной администратор / The Night Manager (2016) WEB-DLRip [H.264] (сезон 1, серии 1-5 из 6) LostFilm [MP4|1280x720]
  • Джон Ле Карре | Ночной администратор (2016) [MP3]


    • Комментарии (0):

      Информация

      Информация

        Посетители, находящиеся в группе Гости, не могут оставлять комментарии в данной новости.

        ↓ Меню




        ↓ Опрос

        Вы добавили сайт в закладки?
        Да
        Нет


        Top 10 за месяц (Фильмы)