.
Авторизация | Регистрация
Хочешь лучшие торренты? Добавь свой email!
Добавить

Торрент скачать бесплатно

» » Государственный секретарь / Madam Secretary (2015) WEB-DLRip (сезон 2, серии 1-12 из 22) kiitos (обновляемая) торрент скачать бесплатно




    Государственный секретарь / Madam Secretary (2015) WEB-DLRip (сезон 2, серии 1-12 из 22) kiitos (обновляемая) торрент скачать бесплатно

    Опубликовал: Админ | Дата: 23-02-2016, 04:00 | Просмотров: 454

    Производство: США
    Жанр: драма
    Режиссер: Дэнни Гордон, Роб Дж. Гринли

    Актеры
    Теа Леони, Тимоти Дэйли, Патина Миллер, Джеффри Аренд, Эрих Берген, Кэтрин Герцер, Эван Роу, Желько Иванек, Биби Нойвирт и др.

    Описание

    В центре сюжета находится Элизабет Маккорд, недавно назначенная на пост госсекретаря США. Героиня сериала ежедневно сталкивается со сложными миссиями и ведет глобальные переговоры. В сериале перекликаются реальные события сегодняшнего дня, политические интриги, борьба с терроризмом, война.

    Продолжительность: ~00: 44: 00 серия
    Качество видео: WEB-DLRip
    Перевод: Двуголосый закадровый, любительский - kiitos
    Автор перевода: annasss, torrfan
    Видео: Xvid, 720х400 (16: 9) ~1386 Kbps
    Аудио: MP3, 2 ch, 192 Kbps, CBR
    Код:

    Format : AVI
    Format/Info : Audio Video Interleave
    File size : 501 MiB
    Duration : 44mn 7s
    Overall bit rate : 1 587 Kbps
    Writing application : VirtualDubMod 1.5.10.2 (build 2540/release)
    Writing library : VirtualDubMod build 2540/release
    Video
    ID : 0
    Format : MPEG-4 Visual
    Format profile : Advanced Simple@L5
    Format settings, BVOP : 2
    Format settings, QPel : No
    Format settings, GMC : No warppoints
    Format settings, Matrix : Default (MPEG)
    Codec ID : XVID
    Codec ID/Hint : XviD
    Duration : 44mn 7s
    Bit rate : 1 386 Kbps
    Width : 720 pixels
    Height : 400 pixels
    Display aspect ratio : 16:9
    Frame rate : 23.976 fps
    Color space : YUV
    Chroma subsampling : 4:2:0
    Bit depth : 8 bits
    Scan type : Progressive
    Compression mode : Lossy
    Bits/(Pixel*Frame) : 0.201
    Stream size : 437 MiB (87%)
    Writing library : XviD 73
    Audio
    ID : 1
    Format : MPEG Audio
    Format version : Version 1
    Format profile : Layer 3
    Mode : Joint stereo
    Codec ID : 55
    Codec ID/Hint : MP3
    Duration : 44mn 7s
    Bit rate mode : Constant
    Bit rate : 192 Kbps
    Channel(s) : 2 channels
    Sampling rate : 48.0 KHz
    Compression mode : Lossy
    Stream size : 60.6 MiB (12%)
    Alignment : Aligned on interleaves
    Interleave, duration : 42 ms (1.00 video frame)
    Interleave, preload duration : 504 ms
    Википедия Мадам госсекретарь (англ. Madam Secretary) — американский телевизионный сериал, созданный Барбарой Холл с Теа Леони в главной роли1, который выйдет на CBS в сезон любимого сериалае 2014—2015 годов. Самое интересное в это истории, что об этом Ющенко ничего не знал. В центре сюжета находится Элизабет Маккорд, недавно назначенная на пост госсекретаря, которая ежедневно сталкивается со сложными миссиями и ведет глобальные переговоры. Лауреат премий Тони и Эмми, Биби Нойвирт играет роль начальника её штаба2. Также лауреат Эмми, Желько Иванек, после съемки пилотного эпизода присоединился к шоу в роли начальника штаба президента3.
    9 мая 2014 года, CBS заказал съемки первого сезон любимого сериалаа сериала для трансляции в телесезон любимого сериалае 2014-15 годов4, по воскресеньям, начиная с 21 сентября 2014 года5. Пилотный эпизод получил смешанные отзывы от критиков, а на рейтинговой стороне собрал лишь 1, 9 в демографической категории 18-49, при более четырнадцати миллионах зрителей, большинство из которых было старше пятидесяти лет6. 27 октября канал продлил сериал на полный сезон любимого сериала7. 12 января 2015 года канал продлил сериал на второй сезон любимого сериала8.





    Скриншоты для ознакомления




    Онлайн видео Государственный секретарь



    Государственный секретарь/Madam Secretary (2015) WEB-DLRip (сезон 2, серии 1-12 из 22) kiitos (обновляемая)
    загрузка...
    Рейтинг →
     (голосов: 1, оценка 3/5, голосовать можно 1 раз )

    Другие торренты по теме:

  • Государственный секретарь / Madam Secretary (2014) HDTVRip [сезон 1, серии 1-5 из 13] [EN / RU Sub] Обновляемая скачать через торрент бесплатно
  • Государственный секретарь / Madam Secretary (2014) WEB-DLRip [1 сезон, 1 серия из 13] Kiitos [Обновляемая] скачать через торрент бесплатно
  • Государственный секретарь / Madam Secretary (2014) WEB-DL [H.264 / 1080p-LQ] (сезон 1, серии 01-04 из 22) kiitos (обновляемая)
  • Государственный секретарь / Madam Secretary (2015) WEB-DL [H.264 / 720p-LQ] (сезон 2, серии 1-9 из 22) (kiitos) (обновляемая)
  • Государственный секретарь / Madam Secretary (2015) WEB-DLRip (сезон 2, серии 1-23 из 23) kiitos
  • Государственный секретарь / Madam Secretary (2016) WEB-DLRip [H.264 / 720p-LQ] (сезон 3, серии 1-2 из 8) kiitos (обновляемая)
  • Государственный секретарь / Madam Secretary (2016) WEB-DLRip [H.264 / 720p-LQ] (сезон 3, серии 1-16 из 23) kiitos (обновляемая)


    • Комментарии (0):

      Информация

      Информация

        Посетители, находящиеся в группе Гости, не могут оставлять комментарии в данной новости.

        ↓ Меню




        ↓ Опрос

        Вы добавили сайт в закладки?
        Да
        Нет


        Top 10 за месяц (Фильмы)