.
Авторизация | Регистрация
Хочешь лучшие торренты? Добавь свой email!
Добавить

Торрент скачать бесплатно

» » Оборотень / Волчонок / Teen Wolf (2014) IPTVRip (сезон 4, серии 1-12 из 12) Sony Sci-Fi торрент скачать бесплатно




    Оборотень / Волчонок / Teen Wolf (2014) IPTVRip (сезон 4, серии 1-12 из 12) Sony Sci-Fi торрент скачать бесплатно

    Опубликовал: Админ | Дата: 23-02-2016, 04:00 | Просмотров: 50

    Производство: США/MGM Television, MTV
    Жанр: фэнтези, боевик, драма, комедия
    Режиссер: Рассел Малкэй, Тим Эндрю, Дженнифер Чэмберс Линч

    Актеры
    Тайлер Пози, Дилан О’Брайен, Холлэнд Роден, Линден Эшби, Тайлер Хэклин, Мелисса Понцио, Кристал Рид, ДжейАр Борн, Арден Чо, Райан Келли и др.

    Описание

    Сериал крутится вокруг молодого игрока в лакросс по имени Скотт МакКол. Однажды ночью он блуждал по лесу в поисках трупа и подвергся нападению оборотня. Ему удалось убежать, получив лишь небольшой укус. Но чуть позднее, он начал замечать некоторые изменения в себе.
    Волчонок - молодёжный мистико-драматический телесериал, снятый в США по мотивам одноимённого фильма 1985 года по заказу канала MTV. Премьера состоялась 5 июня 2011 года после церемонии вручения наград MTV Movie Awards.

    Продолжительность: ~00: 40: 00 серия
    Качество видео: IPTVRip
    Перевод: Двуголосый закадровый, профессиональный - Sony Sci-Fi
    Видео: AVC/H.264, 1016x576 (16: 9), ~1600 Kbps
    Аудио: MP3, 2 ch, 192 kbps
    Код:

    Общее
    Уникальный идентификатор : 18432374615125910578356684064256782067 (0xDDDF23B9692BA7B5F83EFD404996EF3)
    Полное имя : E:ЗакачкиTeenWolf_s4_SonySciFiTeenWolf_s4_e01_SonySci-Fi.mkv
    Формат : Matroska
    Версия формата : Version 2
    Размер файла : 516 Мбайт
    Продолжительность : 40 м.
    Общий поток : 1796 Кбит/сек
    Программа кодирования : Lavf54.63.104
    Библиотека кодирования : Lavf54.63.104/Lavf54.63.104
    Видео
    Идентификатор : 1
    Формат : AVC
    Формат/Информация : Advanced Video Codec
    Профиль формата :High@L3.1
    Параметр CABAC формата : Да
    Параметр ReFrames формата : 2 кадра
    Идентификатор кодека : V_MPEG4/ISO/AVC
    Продолжительность : 40 м.
    Битрейт : 1600 Кбит/сек
    Ширина : 1016 пикселей
    Высота : 576 пикселей
    Соотношение сторон : 16:9
    Режим частоты кадров : Постоянный
    Частота кадров : 25, 000 кадров/сек
    Цветовое пространство : YUV
    Субдискретизация насыщенности : 4:2:0
    Битовая глубина : 8 бит
    Тип развёртки : Прогрессивная
    Бит/(Пиксели*Кадры) : 0.109
    Размер потока : 451 Мбайт (87%)
    Библиотека кодирования : x264 core 129
    Настройки программы : cabac=1/ref=2/deblock=1:0:0/analyse=0x3:0x113/me=hex/subme=6/psy=1/psy_rd=1.00:0.00/mixed_ref=1/me_range=16/chroma_me=1/trellis=0/8x8dct=1/cqm=0/deadzone=21, 11/fast_pskip=1/chroma_qp_offset=-2/threads=8/lookahead_threads=1/sliced_threads=0/nr=0/decimate=1/interlaced=0/bluray_compat=0/constrained_intra=0/bframes=0/weightp=2/keyint=250/keyint_min=25/scenecut=40/intra_refresh=0/rc_lookahead=40/rc=2pass/mbtree=1/bitrate=1600/ratetol=1.0/qcomp=0.60/qpmin=10/qpmax=51/qpstep=4/cplxblur=20.0/qblur=0.5/ip_ratio=1.41/aq=1:1.00
    Default : Да
    Forced : Нет
    Аудио
    Идентификатор : 2
    Формат : MPEG Audio
    Версия формата : Version 1
    Профиль формата : Layer 3
    Режим : Joint stereo
    Расширение режима : MS Stereo
    Идентификатор кодека : A_MPEG/L3
    Идентификатор кодека/Подсказка : MP3
    Продолжительность : 40 м.
    Вид битрейта : Постоянный
    Битрейт : 192 Кбит/сек
    Каналы : 2 канала
    Частота : 48, 0 КГц
    Метод сжатия : С потерями
    Размер потока : 55, 2 Мбайт (11%)
    Default : Да
    Forced : Нет


    Скриншоты для ознакомления




    Онлайн видео Оборотень



    Оборотень/Волчонок/Teen Wolf (2014) IPTVRip (сезон 4, серии 1-12 из 12) Sony Sci-Fi
    загрузка...
    Рейтинг →
     (голосов: 1, оценка 4/5, голосовать можно 1 раз )

    Другие торренты по теме:

  • Оборотень / Волчонок / Teen Wolf (2015) HDTVRip (сезон 5, серии 1-2 из 10) (Alternative Production) (обновляемая) скачать через торрент бесплатно
  • Оборотень / Волчонок / Teen Wolf (2015) WEB-DL [H.264 / 720p-LQ] (cезон 5, серии 1-7 из 20) (Alternative Production, VO-production) (обновляемая) скачать через торрент бесплатно
  • Оборотень / Волчонок / Teen Wolf (2016) HDTVRip (сезон 6, серии 1 из 20) Alternative Production (обновляемая)
  • Оборотень / Волчонок / Teen Wolf (2016) WEB-DL [H.264 / 720p-LQ] (сезон 6, серии 1-3 из 20) Alternative Production, VO-production (обновляемая)
  • Оборотень / Волчонок / Teen Wolf (2016) WEB-DL [H.264 / 720p-LQ] (сезон 6, серии 1-11 из 20) Alternative Production, VO-production, RG.paravozik (обновляемая) [AD]


    • Комментарии (0):

      Информация

      Информация

        Посетители, находящиеся в группе Гости, не могут оставлять комментарии в данной новости.

        ↓ Меню




        ↓ Опрос

        Вы добавили сайт в закладки?
        Да
        Нет


        Top 10 за месяц (Фильмы)