.
Авторизация | Регистрация
Хочешь лучшие торренты? Добавь свой email!
Добавить

Торрент скачать бесплатно

» » Кремлевские куранты (1970) DVDRip [H.264] торрент скачать бесплатно




    Кремлевские куранты (1970) DVDRip [H.264] торрент скачать бесплатно

    Опубликовал: Админ | Дата: 21-02-2016, 04:09 | Просмотров: 59

    Производство: СССР, Мосфильм
    Жанр: Драма
    Режиссер: Виктор Георгиев

    Актеры
    Борис Ливанов, Юрий Каюров, Анатолий Фалькович, Юрий Каморный, Антонина Пилюс, Марк Прудкин, Валентина Серова, Борис Петкер, Евгений Тетерин, Всеволод Санаев

    Описание

    По одноименной пьесе Николая Погодина о зарождении плана электрификации, о роли Ленина в привлечении интеллигенции к сотрудничеству с новой властью.

    Релиз от: ФЕНИКС
    Продолжительность: 01: 37: 23
    Качество видео: DVDRip
    Видео: AVC/H.264, 700x328@836x328, ~1600 Кбит/сек
    Аудио1: AC3, 2 ch, 192 Кбит/сек - русский
    Аудио2: AC3, 2 ch, 192 Кбит/сек - немецкий
    Код:

    Общее
    Уникальный идентификатор : 233757677625665912393881451671763174892 (0xAFDC1752C94B8052B7B9A6EC09A245EC)
    Полное имя : E:Кремлёвские куранты (1970) DVDRip.mkv
    Формат : Matroska
    Версия формата : Version 4/Version 2
    Размер файла : 1, 35 Гбайт
    Продолжительность : 1 ч. 37 м.
    Общий поток : 1986 Кбит/сек
    Дата кодирования : UTC 2016-02-13 21:14:51
    Программа кодирования : mkvmerge v8.8.0 (\'Wind at my back\') 64bit
    Библиотека кодирования : libebml v1.3.3 + libmatroska v1.4.4
    Видео
    Идентификатор : 1
    Формат : AVC
    Формат/Информация : Advanced Video Codec
    Профиль формата :High@L4.1
    Параметр CABAC формата : Да
    Параметр ReFrames формата : 16 кадров
    Идентификатор кодека : V_MPEG4/ISO/AVC
    Продолжительность : 1 ч. Взрывоопасный вопрос, сказал кто то из толпы, к чему не понятно. 37 м.
    Битрейт : 1600 Кбит/сек
    Ширина : 720 пикселей
    Высота : 328 пикселей
    Соотношение сторон : 2, 549
    Соотношение сторон в оригинале : 2, 2:1
    Режим частоты кадров : Постоянный
    Частота кадров : 25, 000 кадров/сек
    Цветовое пространство : YUV
    Субдискретизация насыщенности : 4:2:0
    Битовая глубина : 8 бит
    Тип развёртки : Прогрессивная
    Бит/(Пиксели*Кадры) : 0.271
    Размер потока : 1, 09 Гбайт (81%)
    Библиотека кодирования : x264 core 146 r2538 121396c
    Настройки программы : cabac=1/ref=16/deblock=1:0:0/analyse=0x3:0x133/me=umh/subme=10/psy=1/psy_rd=1.00:0.00/mixed_ref=1/me_range=24/chroma_me=1/trellis=2/8x8dct=1/cqm=0/deadzone=21, 11/fast_pskip=1/chroma_qp_offset=-2/threads=36/lookahead_threads=2/sliced_threads=0/nr=0/decimate=1/interlaced=0/bluray_compat=0/constrained_intra=0/bframes=8/b_pyramid=2/b_adapt=2/b_bias=0/direct=3/weightb=1/open_gop=0/weightp=2/keyint=250/keyint_min=25/scenecut=40/intra_refresh=0/rc_lookahead=60/rc=2pass/mbtree=1/bitrate=1600/ratetol=1.0/qcomp=0.60/qpmin=0/qpmax=69/qpstep=4/cplxblur=20.0/qblur=0.5/ip_ratio=1.40/aq=1:1.00
    Язык : Russian
    Default : Да
    Forced : Нет
    Аудио #1
    Идентификатор : 2
    Формат : AC-3
    Формат/Информация : Audio Coding 3
    Расширение режима : CM (complete main)
    Параметр Endianness формата : Big
    Идентификатор кодека : A_AC3
    Продолжительность : 1 ч. 37 м.
    Вид битрейта : Постоянный
    Битрейт : 192 Кбит/сек
    Каналы : 2 канала
    Расположение каналов : Front: L R
    Частота : 48, 0 КГц
    Частота кадров : 31, 250 кадров/сек (1536 spf)
    Метод сжатия : С потерями
    Размер потока : 134 Мбайт (10%)
    Язык : Russian
    Default : Да
    Forced : Нет
    Аудио #2
    Идентификатор : 3
    Формат : AC-3
    Формат/Информация : Audio Coding 3
    Расширение режима : CM (complete main)
    Параметр Endianness формата : Big
    Идентификатор кодека : A_AC3
    Продолжительность : 1 ч. 37 м.
    Вид битрейта : Постоянный
    Битрейт : 192 Кбит/сек
    Каналы : 2 канала
    Расположение каналов : Front: L R
    Частота : 48, 0 КГц
    Частота кадров : 31, 250 кадров/сек (1536 spf)
    Метод сжатия : С потерями
    Размер потока : 134 Мбайт (10%)
    Язык : German
    Default : Нет
    Forced : Нет


    Скриншоты для ознакомления




    Онлайн видео Бой на перекрестке (1982) DVB (серии 1



    Кремлевские куранты (1970) DVDRip [H.264]
    загрузка...
    Рейтинг →
     (голосов: 1, оценка 3/5, голосовать можно 1 раз )

    Другие торренты по теме:

  • Александр Соколов | Кремлевские «инсайдеры». Кто управляет экономикой России (2016) [FB2, RTF]
  • Кремлевские тайны академика Арбатова (2003) DVBRip


    • Комментарии (0):

      Информация

      Информация

        Посетители, находящиеся в группе Гости, не могут оставлять комментарии в данной новости.

        ↓ Меню




        ↓ Опрос

        Вы добавили сайт в закладки?
        Да
        Нет


        Top 10 за месяц (Фильмы)