.
Авторизация | Регистрация
Хочешь лучшие торренты? Добавь свой email!
Добавить

Торрент скачать бесплатно

» » Моя любовь (1940) SATRip [H.264] торрент скачать бесплатно




    Моя любовь (1940) SATRip [H.264] торрент скачать бесплатно

    Опубликовал: Админ | Дата: 21-02-2016, 04:08 | Просмотров: 47

    Производство: К/с Советская Беларусь
    Жанр: Лирическая комедия
    Режиссер: Владимир Корш-Саблин

    Актеры
    Лидия Смирнова, Иван Переверзев, Владимир Чобур, Феликс Черноусько, Владимир Шишкин, Николай Соколов, Николай Трофимов (II), Мария Ключарева, Алексей Матов, М. Шленская, М. Крикунова...

    Описание

    Милая и добрая девушка усыновила малыша — и это привело к забавным недоразумениям в ее отношениях с поклонниками и к полной ясности в установлении мнимых и настоящих чувств…

    Релиз от :

    Продолжительность: 01: 16: 01
    Качество видео: SATRip
    Видео: AVC/H.264, 698x572@745x572, ~2870 kbps
    Аудио: MP2, 2 ch, 192 kbps, CBR
    Код:

    Общее
    Уникальный идентификатор : 219581805572200025366227397490832234600 (0xA531EADE9EB83E17A8C281B59E76D868)
    Полное имя : D:-TTTМоя любовь-Sat-MG-NNM.mkv
    Формат : Matroska
    Версия формата : Version 4/Version 2
    Размер файла : 1, 63 Гбайт
    Продолжительность : 1 ч. 16 м.
    Общий поток : 3064 Кбит/сек
    Дата кодирования : UTC 2016-02-17 00:39:16
    Программа кодирования : mkvmerge v8.8.0 (\'Wind at my back\') 64bit
    Библиотека кодирования : libebml v1.3.3 + libmatroska v1.4.4
    Видео
    Идентификатор : 1
    Формат : AVC
    Формат/Информация : Advanced Video Codec
    Профиль формата :High@L4.1
    Параметр CABAC формата : Да
    Параметр ReFrames формата : 14 кадров
    Идентификатор кодека : V_MPEG4/ISO/AVC
    Продолжительность : 1 ч. 16 м.
    Битрейт : 2870 Кбит/сек
    Ширина : 698 пикселей
    Высота : 572 пикселя
    Соотношение сторон : 4:3
    Режим частоты кадров : Постоянный
    Частота кадров : 25, 000 кадров/сек
    Цветовое пространство : YUV
    Субдискретизация насыщенности : 4:2:0
    Битовая глубина : 8 бит
    Тип развёртки : Прогрессивная
    Бит/(Пиксели*Кадры) : 0.288
    Размер потока : 1, 52 Гбайт (94%)
    Заголовок : FomaTash for nnm-club.me
    Библиотека кодирования : x264 core 146 r2538 121396c
    Настройки программы : cabac=1/ref=14/deblock=1:-1:-1/analyse=0x3:0x133/me=umh/subme=9/psy=1/psy_rd=1.00:0.15/mixed_ref=1/me_range=32/chroma_me=1/trellis=2/8x8dct=1/cqm=0/deadzone=21, 11/fast_pskip=1/chroma_qp_offset=-3/threads=6/lookahead_threads=1/sliced_threads=0/nr=0/decimate=0/interlaced=0/bluray_compat=0/constrained_intra=0/bframes=11/b_pyramid=2/b_adapt=2/b_bias=0/direct=3/weightb=1/open_gop=0/weightp=2/keyint=240/keyint_min=23/scenecut=40/intra_refresh=0/rc_lookahead=40/rc=2pass/mbtree=0/bitrate=2870/ratetol=1.0/qcomp=0.60/qpmin=10/qpmax=51/qpstep=4/cplxblur=20.0/qblur=0.5/vbv_maxrate=50000/vbv_bufsize=62500/nal_hrd=none/filler=0/ip_ratio=1.40/pb_ratio=1.30/aq=1:1.00
    Язык : Russian
    Default : Да
    Forced : Нет
    Аудио
    Идентификатор : 2
    Формат : MPEG Audio
    Версия формата : Version 1
    Профиль формата : Layer 2
    Идентификатор кодека : A_MPEG/L2
    Идентификатор кодека/Подсказка : MP2
    Продолжительность : 1 ч. 16 м.
    Вид битрейта : Постоянный
    Битрейт : 192 Кбит/сек
    Каналы : 2 канала
    Частота : 48, 0 КГц
    Частота кадров : 41, 667 кадра/сек (1152 spf)
    Метод сжатия : С потерями
    Размер потока : 104 Мбайт (6%)
    Заголовок : MP2-2 канала
    Язык : Russian
    Default : Да
    Forced : Нет


    Скриншоты для ознакомления




    Моя любовь (1940) SATRip [H.264]
    загрузка...
    Рейтинг →
     (голосов: 1, оценка 5/5, голосовать можно 1 раз )

    Другие торренты по теме:

  • Все побеждает любовь (1987) SATRip
  • Виртуальная любовь (2012) SATRip
  • Надежда Румянцева. Во всем прошу винить любовь (2010) SATRip
  • Хроники московского быта. Любовь без штампа (2014.10.01) SATRip
  • Сделано в СССР. Любовь поэта (2014) SATRip
  • Сделано в СССР. Любовь поэта (2014) SATRip
  • Верни мою любовь (2014) SATRip (сезон 1,серии 1-4 из 24) (обновляемая)
  • Новые русские сенсации. Любовь и кризис олигарха № 1 (2014.12.20) SATRip скачать через торрент бесплатно


    • Комментарии (0):

      Информация

      Информация

        Посетители, находящиеся в группе Гости, не могут оставлять комментарии в данной новости.

        ↓ Меню




        ↓ Опрос

        Вы добавили сайт в закладки?
        Да
        Нет


        Top 10 за месяц (Фильмы)