.
Авторизация | Регистрация
Хочешь лучшие торренты? Добавь свой email!
Добавить

Торрент скачать бесплатно

» » Звезда (1949) DVDRip [H.264] торрент скачать бесплатно




    Звезда (1949) DVDRip [H.264] торрент скачать бесплатно

    Опубликовал: Админ | Дата: 21-02-2016, 04:08 | Просмотров: 61

    Производство: СССР, Киностудия ЛенФильм
    Жанр: Военный, Драма
    Год выпуска: 1949
    Режиссер: Александр Иванов
    Сценарий: Павел Фурманский, Эммануил Казакевич
    Оператор: Сергей Иванов, Владимир Рапопорт
    Композитор: Венедикт Пушков

    Актеры
    Анатолий Вербицкий, Алексей Покровский, Ирина Радченко, Лидия Сухаревская, Олег Жаков, Александр Хлопотов, Мовсум Санани, Николай Крючков, Василий Меркурьев, Павел Волков

    Описание

    Фильм о маленькой группе разведчиков снят по одноименной повести Эммануила Казакевича. О таком странном сюжете не догадывалась даже Земфира. Весной 1944 года на оккупированной территории немецкое командование готовит секретное наступление. Разведчики, направленные во вражеский тыл для уточнения данных, назад не вернулись. Новую группу из семерки разведчиков, названную Звезда, возглавляет лейтенант Травкин. Каждый разведчик понимает, что это задание, вероятно, станет для него последним.

    Продолжительность: 01: 28: 12
    Качество видео: DVDRip
    Исходник: DVD5
    Контейнер: MKV
    Видео: AVC/H.264, 704x528, ~2710 kbps
    Аудио: AC3, 2 ch, ~192 kbps
    Код:

    General
    Unique ID : 231407428344016851912986203964629916309 (0xAE1773165F8CB7D898E264BA0DF91A95)
    Complete name : Zvezda.mkv
    Format : Matroska
    Format version : Version 2
    File size : 1.82 GiB
    Duration : 1h 28mn
    Overall bit rate : 2 961 Kbps
    Encoded date : UTC 2012-03-28 20:06:18
    Writing application : mkvmerge v3.3.0 (\'Language\') built on Mar 24 2010 14:59:24
    Writing library : libebml v0.8.0 + libmatroska v0.9.0
    Video
    ID : 1
    Format : AVC
    Format/Info : Advanced Video Codec
    Format profile : High@L3
    Format settings, CABAC : Yes
    Format settings, ReFrames : 5 frames
    Codec ID : V_MPEG4/ISO/AVC
    Duration : 1h 28mn
    Bit rate : 2 710 Kbps
    Width : 704 pixels
    Height : 528 pixels
    Display aspect ratio : 4:3
    Frame rate mode : Constant
    Frame rate : 25.000 fps
    Color space : YUV
    Chroma subsampling : 4:2:0
    Bit depth : 8 bits
    Scan type : Progressive
    Bits/(Pixel*Frame) : 0.292
    Stream size : 1.67 GiB (92%)
    Writing library : x264 core 92 r1510 33d382a
    Encoding settings : cabac=1/ref=5/deblock=1:-1:-1/analyse=0x3:0x133/me=umh/subme=7/psy=1/psy_rd=1.00:0.00/mixed_ref=1/me_range=16/chroma_me=1/trellis=2/8x8dct=1/cqm=0/deadzone=21, 11/fast_pskip=0/chroma_qp_offset=-2/threads=12/sliced_threads=0/nr=0/decimate=1/interlaced=0/constrained_intra=0/bframes=3/b_pyramid=2/b_adapt=2/b_bias=0/direct=3/wpredb=1/wpredp=2/keyint=250/keyint_min=25/scenecut=40/intra_refresh=0/rc_lookahead=50/rc=crf/mbtree=1/crf=18.0/qcomp=0.60/qpmin=10/qpmax=51/qpstep=4/ip_ratio=1.40/aq=1:1.00
    Default : Yes
    Forced : No
    Audio
    ID : 2
    Format : AC-3
    Format/Info : Audio Coding 3
    Mode extension : CM (complete main)
    Format settings, Endianness : Big
    Codec ID : A_AC3
    Duration : 1h 28mn
    Bit rate mode : Constant
    Bit rate : 192 Kbps
    Channel(s) : 2 channels
    Channel positions : Front: L R
    Sampling rate : 48.0 KHz
    Frame rate : 31.250 fps (1536 spf)
    Compression mode : Lossy
    Stream size : 121 MiB (6%)
    Default : Yes
    Forced : No


    Скриншоты для ознакомления




    Звезда (1949) DVDRip [H.264]
    загрузка...
    Рейтинг →
     (голосов: 1, оценка 5/5, голосовать можно 1 раз )

    Другие торренты по теме:

  • Звезда (2014) DVDRip
  • Принц и Вечерняя Звезда / The Prince and the Evening Star (1978) DVDRip [H.264]
  • Сверхновая звезда / Supernova (2014) DVDRip
  • Пламенеющая звезда / Flaming Star (1960) DVDRip [H.264] скачать через торрент бесплатно
  • Северная звезда / North Star (1996) DVDRip скачать через торрент бесплатно
  • Гори, моя звезда (1957) DVDRip скачать через торрент бесплатно
  • Безымянная звезда (1978) DVDRip [H.264] (серии 1-2 из 2)


    • Комментарии (0):

      Информация

      Информация

        Посетители, находящиеся в группе Гости, не могут оставлять комментарии в данной новости.

        ↓ Меню




        ↓ Опрос

        Вы добавили сайт в закладки?
        Да
        Нет


        Top 10 за месяц (Фильмы)