.
Авторизация | Регистрация
Хочешь лучшие торренты? Добавь свой email!
Добавить

Торрент скачать бесплатно

» » Лучше звоните Солу / Better Call Saul (2016) WEB-DLRip (сезон 2, серии 1 из 10) LostFilm (обновляемая) торрент скачать бесплатно




    Лучше звоните Солу / Better Call Saul (2016) WEB-DLRip (сезон 2, серии 1 из 10) LostFilm (обновляемая) торрент скачать бесплатно

    Опубликовал: Админ | Дата: 20-02-2016, 04:01 | Просмотров: 41

    Производство: США/High Bridge Productions, Crystal Diner Productions, Gran Via Productions
    Жанр: драма, криминал
    Режиссер: Адам Бернштейн, Лариса Кондрацки, Томас Шнауз

    Актеры
    Боб Оденкёрк, Джонатан Бэнкс, Ри Сихорн, Майкл МакКин, Патрик Фабиан, Майкл Мэндо, Стив Ларесэ, Джули Энн Эмери, Керри Кондон, Джереми Шамос и др.

    Описание

    Сериал Лучше звоните Солу рассказывает историю Сола Гудмена, одного из персонажей криминального телесериала Во все тяжкие.
    Этот эксцентричный адвокат по уголовным делам, роль которого, как и в оригинальном сериале, исполняет актер Боб Оденкирк, имеет репутацию человека ушлого и как на иголках изворотливого, готового продать душу хоть самому дьяволу, но вытащить своих клиентов из проблем. В сериале Лучше звоните Солу зрителю предстоит узнать о тех испытаниях и невзгодах, что преследовали Сола, до того как он познакомился с главным персонажем Во все тяжкие Уолтером Уайтом, в то время, когда он предпринимал шаги для открытия собственной адвокатской конторы.

    Продолжительность: ~00: 46: 00 серия
    Качество видео: WEB-DLRip
    Перевод: Многоголосый закадровый, профессиональный -LostFilm
    Видео: XviD, 720x400 (16: 9), ~1500 kb/s
    Аудио Rus: MPEG Layer 3, 48, 0 kHz, 2 ch, 128 kb/s — многоголосый закадровый
    Аудио Eng: MPEG Layer 3, 48, 0 kHz, 2 ch, 128 kb/s — оригинал
    Общее
    Полное имя : D: Лучше звоните Солу (сезон любимого сериала 2) Better Call Saul (2016) WEB-DLRip - LostFilmBetter.Call.Saul.S02E01.WEBDLRip.Rus.Eng.DV.LostFilm.avi
    Формат : AVI
    Формат/Информация : Audio Video Interleave
    Размер файла : 596 Мбайт
    Продолжительность : 46 м.
    Общий поток : 1774 Кбит/сек
    Программа кодирования : VirtualDubModRus 1.5.10.2 (build 2542/release)
    Библиотека кодирования : VirtualDubMod build 2542/release
    Видео
    Идентификатор : 0
    Формат : MPEG-4 Visual
    Профиль формата : Advanced Simple@L5
    Параметр BVOP формата : 2
    Параметр QPel формата : Нет
    Параметр GMC формата : Без точки перехода
    Параметр матрицы формата : Default (H.263)
    Идентификатор кодека : XVID
    Идентификатор кодека/Подсказка : XviD
    Продолжительность : 46 м.
    Битрейт : 1504 Кбит/сек
    Ширина : 720 пикселей
    Высота : 400 пикселей
    Соотношение сторон : 16: 9
    Частота кадров : 23, 976 (24000/1001) кадра/сек
    Цветовое пространство : YUV
    Субдискретизация насыщенности : 4: 2: 0
    Битовая глубина : 8 бит
    Тип развёртки : Прогрессивная
    Метод сжатия : С потерями
    Бит/(Пиксели*Кадры) : 0.218
    Размер потока : 505 Мбайт (85%)
    Заголовок : Rip by DriverV/NNM-Club
    Библиотека кодирования : XviD 64
    Аудио #1
    Идентификатор : 1
    Формат : MPEG Audio
    Версия формата : Version 1
    Профиль формата : Layer 3
    Режим : Joint stereo
    Расширение режима : MS Stereo
    Идентификатор кодека : 55
    Идентификатор кодека/Подсказка : MP3
    Продолжительность : 46 м.
    Вид битрейта : Постоянный
    Битрейт : 128 Кбит/сек
    Каналы : 2 канала
    Частота : 48, 0 КГц
    Метод сжатия : С потерями
    Задержка видео : 1 с. 100 мс.
    Размер потока : 43, 0 Мбайт (7%)
    Выравнивание : Разделение по промежуткам
    Продолжительность промежутка : 42 мс. Богатый выбор, сказал кто то из толпы, к чему не понятно. (1, 00 видеокадр)
    Время предзагрузки промежутка : 500 мс.
    Аудио #2
    Идентификатор : 2
    Формат : MPEG Audio
    Версия формата : Version 1
    Профиль формата : Layer 3
    Режим : Joint stereo
    Расширение режима : MS Stereo
    Идентификатор кодека : 55
    Идентификатор кодека/Подсказка : MP3
    Продолжительность : 46 м.
    Вид битрейта : Постоянный
    Битрейт : 128 Кбит/сек
    Каналы : 2 канала
    Частота : 48, 0 КГц
    Метод сжатия : С потерями
    Размер потока : 43, 0 Мбайт (7%)
    Выравнивание : Соединение по промежуткам
    Продолжительность промежутка : 42 мс. (1, 00 видеокадр)
    Время предзагрузки промежутка : 504 мс.
    Библиотека кодирования : LAME3.97


    Скриншоты для ознакомления




    Онлайн видео Лучше звоните Солу



    Лучше звоните Солу/Better Call Saul (2016) WEB-DLRip (сезон 2, серии 1 из 10) LostFilm (обновляемая)
    загрузка...
    Рейтинг →
     (голосов: 1, оценка 4/5, голосовать можно 1 раз )

    Другие торренты по теме:

  • Лучше звоните Солу / Better Call Saul (2015) WEB-DLRip (сезон 1, серии 1 из 10) NewStudio (обновляемая)
  • Лучше звоните Солу / Better Call Saul (2015) WEB-DL [H.264 / 720p-LQ] (Сезон 1, серия 1 из 10) (NewStudio) (обновляемая)
  • Лучше звоните Солу / Better Call Saul (2015) WEB-DL [H.264 / 1080p-LQ] (сезон 1, серия 1-2 из 10) NewStudio (обновляемая) скачать через торрент бесплатно
  • Лучше звоните Солу / Better Call Saul (2015) WEB-DL [H.264 / 720p-LQ] (Сезон 1, серия 1 из 10) (Кубик в Кубе) (обновляемая) скачать через торрент бесплатно
  • Лучше звоните Солу / Better Call Saul (2015) WEB-DLRip (сезон 1, серии 1 из 10) LostFilm (обновляемая)
  • Лучше звоните Солу / Better Call Saul (2015) WEB-DLRip (сезон 1, серии 1-2 из 10) BaibaKo (обновляемая)
  • Лучше звоните Солу / Better Call Saul (2015) WEB-DL [H.264 / 720p-LQ] (сезон 1, серии 1 из 10) LostFilm (обновляемая) скачать через торрент бесплатно
  • Лучше звоните Солу / Better Call Saul (2015) WEB-DL [H.264 / 1080p-LQ] (сезон 1, серии 1-2 из 10) LostFilm + Кубик-В-Кубе + NewStudio + Sub / Rus, Eng (обновляемая)


    • Комментарии (0):

      Информация

      Информация

        Посетители, находящиеся в группе Гости, не могут оставлять комментарии в данной новости.

        ↓ Меню




        ↓ Опрос

        Вы добавили сайт в закладки?
        Да
        Нет


        Top 10 за месяц (Фильмы)