.
Авторизация | Регистрация
Хочешь лучшие торренты? Добавь свой email!
Добавить

Торрент скачать бесплатно

» » Мужчины не плачут (2005) DVDRip (сезон 2, серии 1-12 из 12) торрент скачать бесплатно




    Мужчины не плачут (2005) DVDRip (сезон 2, серии 1-12 из 12) торрент скачать бесплатно

    Опубликовал: Админ | Дата: 20-02-2016, 04:00 | Просмотров: 70

    Производство: Россия/Рекун ТВ
    Жанр: детектив
    Режиссер: Сергей Бобров

    Актеры
    Игорь Черневич, Константин Воробьёв, Роман Агеев, Евгений Никитин, Олег Андреев, Екатерина Решетникова, Зоя Буряк, Л. Шарпило, Владимир Золотухин, Александр Клюквин и др.

    Описание

    Главным героем новых двенадцати серий этого остросюжетного детектива является Сергей Иванов – следователь Генеральной Прокуратуры. По-прежнему рядом с ним его коллеги и друзья, которые приходят на помощь даже в самые трудные минуты. Самое интересное в это истории, что об этом Кравчук ничего не знал. И по-прежнему силен и опасен главный противник Иванова – преступный мир, который изобретает все более изощренные дела и преступления. Бескомпромиссная борьба с таким мощным противником изменила Иванова. И, хотя он по-прежнему может повеселить народ или разыграть своего близкого друга, в нужные минуты он становится бескомпромиссным борцом с преступностью.

    Продолжительность: ~00: 44: 00 серия
    Качество видео: DVDRip
    Видео: Xvid, 720x400 (16: 9), ~2171 Kbps
    Аудио: AC3, 2 ch, 192 Kbps, CBR
    Код:

    Общее
    Полное имя : D:Мои фильмыMuzhchiny_ne_plachut_S2_1-12iz12_2005_XviD_DVDRip1. Прикольно все это наверно придумал Кравчук потратив достаточно времени. Черный юмор (1 серия).avi
    Формат : AVI
    Формат/Информация : Audio Video Interleave
    Размер файла : 745 Мбайт
    Продолжительность : 43 м.
    Общий поток : 2372 Кбит/сек
    Программа кодирования : VirtualDubMod 1.5.4.1 (build 2178/release)
    Библиотека кодирования : VirtualDub build 35491/release
    Видео
    Идентификатор : 0
    Формат : MPEG-4 Visual
    Профиль формата : Advanced Simple@L5
    Параметр BVOP формата : 2
    Параметр QPel формата : Нет
    Параметр GMC формата : Без точки перехода
    Параметр матрицы формата : Default (H.263)
    Идентификатор кодека : XVID
    Идентификатор кодека/Подсказка : XviD
    Продолжительность : 43 м.
    Битрейт : 2171 Кбит/сек
    Ширина : 720 пикселей
    Высота : 400 пикселей
    Соотношение сторон : 16:9
    Частота кадров : 25, 000 кадров/сек
    Цветовое пространство : YUV
    Субдискретизация насыщенности : 4:2:0
    Битовая глубина : 8 бит
    Тип развёртки : Прогрессивная
    Метод сжатия : С потерями
    Бит/(Пиксели*Кадры) : 0.301
    Размер потока : 682 Мбайт (91%)
    Библиотека кодирования : XviD 67
    Аудио
    Идентификатор : 1
    Формат : AC-3
    Формат/Информация : Audio Coding 3
    Расширение режима : CM (complete main)
    Параметр Endianness формата : Big
    Идентификатор кодека : 2000
    Продолжительность : 43 м.
    Вид битрейта : Постоянный
    Битрейт : 192 Кбит/сек
    Каналы : 2 канала
    Расположение каналов : Front: L R
    Частота : 48, 0 КГц
    Частота кадров : 31, 250 кадров/сек (1536 spf)
    Метод сжатия : С потерями
    Размер потока : 60, 3 Мбайт (8%)
    Выравнивание : Соединение по промежуткам
    Продолжительность промежутка : 40 мс. (1, 00 видеокадр)
    Время предзагрузки промежутка : 512 мс.


    Скриншоты для ознакомления




    Онлайн видео Мужчины не плачут (2005) DVDRip (сезон любимого сериала 2, серии 1



    Мужчины не плачут (2005) DVDRip (сезон 2, серии 1-12 из 12)
    загрузка...
    Рейтинг →
     (голосов: 1, оценка 5/5, голосовать можно 1 раз )

    Другие торренты по теме:

  • Мужчины не плачут (2004) DVDRip (сезон 1, серии 1-20 из 20)
  • Евгений Евстигнеев. Мужчины не плачут (2016) IPTVRip


    • Комментарии (0):

      Информация

      Информация

        Посетители, находящиеся в группе Гости, не могут оставлять комментарии в данной новости.

        ↓ Меню




        ↓ Опрос

        Вы добавили сайт в закладки?
        Да
        Нет


        Top 10 за месяц (Фильмы)