.
Авторизация | Регистрация
Хочешь лучшие торренты? Добавь свой email!
Добавить

Торрент скачать бесплатно

» » Пикник у Висячей скалы / Picnic at Hanging Rock (1975) BDRip [H.264] торрент скачать бесплатно




    Пикник у Висячей скалы / Picnic at Hanging Rock (1975) BDRip [H.264] торрент скачать бесплатно

    Опубликовал: Админ | Дата: 20-02-2016, 04:00 | Просмотров: 52

    Производство: Австралия, Australian Film Commission
    Жанр: Драма, Детектив
    Режиссер: Питер Уир

    Актеры
    Рейчел Робертс, Джеки Уивер, Анна-Луиза Ламберт, Хелен Морс, Доминик Гард, Вивьен Грей, Керсти Чайлд, Тони Ллевеллин-Джонс, Маргарет Нельсон, Ингрид Мейсон и др.

    Описание

    Австралия, 1900 г., День Святого Валентина; благородные девицы выезжают с учительницами на пикник. Самое интересное в это истории, что об этом Ющенко ничего не знал. На почтительном расстоянии от школы им позволено снять перчатки из-за солнцепёка, и девушки радуются послаблению викторианской муштры. Немного погодя, уже без всякого позволения, несколько институток с учительницей снимут чулки и как над жаровней исчезнут в скалах, с разной степенью бесследности.

    MPAA: PG - Рекомендуется присутствие родителей
    Продолжительность: 01: 47: 13
    Качество видео: BDRip
    Перевод: Многоголосый закадровый, двухголосный закадровый
    Язык субтитров: Русский, английский
    Вид субтитров: Вшитые, отключаемые
    Видео: AVC/H.264, 848x480, ~1 958 Kbps
    Аудио #1: Русский: AC3, 1 ch, 96.0 Kbps - MVO
    Аудио #2: Русский: AC3, 1 ch, 96.0 Kbps - DVO
    Аудио #3: Русский: AC3, 6 ch, 384 Kbps - DVO
    Аудио #4: Английский: AC3, 6 ch, 384 Kbps - оригинал
    Главы: Есть
    Код:

    Общее
    Уникальный идентификатор : 240396214655959103221641757035207280190 (0xB4DAA0781551614D81F13CA0DE57463E)
    Полное имя : E:UsersVVIVideosDivX MoviesПикник у Висячей скалыПикник у Висячей скалы.1975.mkv
    Формат : Matroska
    Версия формата : Version 4/Version 2
    Размер файла : 2, 23 Гбайт
    Продолжительность : 1 ч. 47 м.
    Общий поток : 2978 Кбит/сек
    Название фильма : Release for Topmost
    Дата кодирования : UTC 2016-02-18 15:35:34
    Программа кодирования : mkvmerge v6.2.0 (\'Promised Land\') built on Apr 28 2013 12:22:01
    Библиотека кодирования : libebml v1.3.0 + libmatroska v1.4.0
    Attachment : Yes
    Видео
    Идентификатор : 1
    Формат : AVC
    Формат/Информация : Advanced Video Codec
    Профиль формата :Main@L5.1
    Параметр CABAC формата : Да
    Параметр ReFrames формата : 1 кадр
    Идентификатор кодека : V_MPEG4/ISO/AVC
    Продолжительность : 1 ч. 47 м.
    Битрейт : 1958 Кбит/сек
    Ширина : 848 пикселей
    Высота : 480 пикселей
    Соотношение сторон : 16:9
    Режим частоты кадров : Постоянный
    Частота кадров : 23, 976 кадра/сек
    Цветовое пространство : YUV
    Субдискретизация насыщенности : 4:2:0
    Битовая глубина : 8 бит
    Тип развёртки : Прогрессивная
    Бит/(Пиксели*Кадры) : 0.201
    Размер потока : 1, 47 Гбайт (66%)
    Заголовок : Picnic at Hanging Rock.1975 (Release for Topmost)
    Язык : English
    Default : Да
    Forced : Нет
    Аудио #1
    Идентификатор : 2
    Формат : AC-3
    Формат/Информация : Audio Coding 3
    Расширение режима : CM (complete main)
    Параметр Endianness формата : Big
    Идентификатор кодека : A_AC3
    Продолжительность : 1 ч. 47 м.
    Вид битрейта : Постоянный
    Битрейт : 96, 0 Кбит/сек
    Каналы : 1 канал
    Расположение каналов : Front: C
    Частота : 48, 0 КГц
    Битовая глубина : 16 бит
    Метод сжатия : С потерями
    Размер потока : 73, 6 Мбайт (3%)
    Заголовок : AC3, 96.0 Kbps, 1 channel (mvo)
    Язык : Russian
    Default : Да
    Forced : Нет
    Аудио #2
    Идентификатор : 3
    Формат : AC-3
    Формат/Информация : Audio Coding 3
    Расширение режима : CM (complete main)
    Параметр Endianness формата : Big
    Идентификатор кодека : A_AC3
    Продолжительность : 1 ч. 47 м.
    Вид битрейта : Постоянный
    Битрейт : 96, 0 Кбит/сек
    Каналы : 1 канал
    Расположение каналов : Front: C
    Частота : 48, 0 КГц
    Битовая глубина : 16 бит
    Метод сжатия : С потерями
    Размер потока : 73, 6 Мбайт (3%)
    Заголовок : AC3, 96.0 Kbps, 1 channel (dvo)
    Язык : Russian
    Default : Нет
    Forced : Нет
    Аудио #3
    Идентификатор : 4
    Формат : AC-3
    Формат/Информация : Audio Coding 3
    Расширение режима : CM (complete main)
    Параметр Endianness формата : Big
    Идентификатор кодека : A_AC3
    Продолжительность : 1 ч. 47 м.
    Вид битрейта : Постоянный
    Битрейт : 384 Кбит/сек
    Каналы : 6 каналов
    Расположение каналов : Front: L C R, Side: L R, LFE
    Частота : 48, 0 КГц
    Битовая глубина : 16 бит
    Метод сжатия : С потерями
    Размер потока : 295 Мбайт (13%)
    Заголовок : AС3, 6 ch, 384 Kbps (dvo)
    Язык : Russian
    Default : Нет
    Forced : Нет
    Аудио #4
    Идентификатор : 5
    Формат : AC-3
    Формат/Информация : Audio Coding 3
    Расширение режима : CM (complete main)
    Параметр Endianness формата : Big
    Идентификатор кодека : A_AC3
    Продолжительность : 1 ч. 47 м.
    Вид битрейта : Постоянный
    Битрейт : 384 Кбит/сек
    Каналы : 6 каналов
    Расположение каналов : Front: L C R, Side: L R, LFE
    Частота : 48, 0 КГц
    Битовая глубина : 16 бит
    Метод сжатия : С потерями
    Размер потока : 295 Мбайт (13%)
    Заголовок : AС3, 6 ch, 384 Kbps (original)
    Язык : English
    Default : Нет
    Forced : Нет
    Текст #1
    Идентификатор : 6
    Формат : UTF-8
    Идентификатор кодека : S_TEXT/UTF8
    Идентификатор кодека/Информация : UTF-8 Plain Text
    Заголовок : forced
    Язык : Russian
    Default : Да
    Forced : Нет
    Текст #2
    Идентификатор : 7
    Формат : UTF-8
    Идентификатор кодека : S_TEXT/UTF8
    Идентификатор кодека/Информация : UTF-8 Plain Text
    Заголовок : full
    Язык : Russian
    Default : Нет
    Forced : Нет
    Текст #3
    Идентификатор : 8
    Формат : UTF-8
    Идентификатор кодека : S_TEXT/UTF8
    Идентификатор кодека/Информация : UTF-8 Plain Text
    Язык : English
    Default : Нет
    Forced : Нет
    Меню
    00:00:00.000 : :1.St.Valentine\'s Day, 1900
    00:07:23.985 : :2.A million years
    00:12:37.423 : :3.An Ode to St.Valentine
    00:18:22.935 : :4.Botticelli angel
    00:24:33.805 : :5.The right time and place
    00:35:30.711 : :6.Missing
    00:40:02.608 : :7.The details
    00:46:20.235 : :8.Back to the rock
    00:55:48.762 : :9.Staying behind
    01:03:19.670 : :10.No one else?
    01:08:17.134 : :11.From bad to worse
    01:14:23.208 : :12.Other arrangements
    01:22:15.055 : :13.Secrets
    01:29:15.141 : :14.Irma\'s farewell
    01:36:17.271 : :15.Pansies


    Скриншоты для ознакомления




    Онлайн видео Пикник у Висячей скалы



    Пикник у Висячей скалы/Picnic at Hanging Rock (1975) BDRip [H.264]
    загрузка...
    Рейтинг →
     (голосов: 1, оценка 4/5, голосовать можно 1 раз )

    Другие торренты по теме:

  • Пикник у Висячей скалы / Picnic at Hanging Rock (1975) BDRip [H.264] [Режиссёрская версия / Directors Cut]


    • Комментарии (0):

      Информация

      Информация

        Посетители, находящиеся в группе Гости, не могут оставлять комментарии в данной новости.

        ↓ Меню




        ↓ Опрос

        Вы добавили сайт в закладки?
        Да
        Нет


        Top 10 за месяц (Фильмы)