.
Авторизация | Регистрация
Хочешь лучшие торренты? Добавь свой email!
Добавить

Торрент скачать бесплатно

» » 11 / 22 / 63 / 11.22.63 (2016) HDTVRip (сезон 1, серия 1 из 8) NewStudio (обновляемая) торрент скачать бесплатно




    11 / 22 / 63 / 11.22.63 (2016) HDTVRip (сезон 1, серия 1 из 8) NewStudio (обновляемая) торрент скачать бесплатно

    Опубликовал: Админ | Дата: 18-02-2016, 04:00 | Просмотров: 51

    Производство: США/Warner Bros. Television, Bad Robot.
    Жанр: фантастика, триллер, детектив
    Режиссер: Джеймс Стронг, Фред Туа, Джеймс Кент

    Актеры
    Джеймс Франко, Крис Купер, Джош Дюамель, Люси Фрай, Сара Гадон, Черри Джонс, Т.Р. Найт, Джордж МакКэй, Даниэль Уэббер и др.

    Описание

    Фантастический фильм по роману Стивена Кинга 11/22/63. Джейк Эппинг – учитель английского языка в средней школе. Один из его учеников пишет эссе о том, что случилось 50 лет назад. Отец одного мальчика пришел домой пьяным и забил молотком свою жену, двух сыновей и дочь. Мальчик остался жив, но с тех пор хромает. Друг Джейка предлагает ему отправиться в 1958 год и предотвратить убийство президента Джона Кеннеди. Джейк не только спасает семью того мальчика, но и выслеживает убийцу Кеннеди.

    Дата мировой премьеры: 15 февраля 2016
    Продолжительность: ~01: 20: 00 серия
    Качество видео: HDTVRip
    Перевод: Многоголосый закадровый, профессиональный -NewStudio
    Автор перевода: Ирина Гвозденко
    Видео: XviD, 720x360, ~1450 Kbps
    Аудио Rus: MP3, 48KHz, 2 ch, 128 Kbps, CBR - многоголосый закадровый
    Аудио Eng: MP3, 48KHz, 2 ch, 128 Kbps, CBR - оригинал
    Код:

    General
    Complete name : D:NNM-club11.22.63.s01.HDTVRip.NewStudio.TV11.22.63.s01e01.HDTVRip.NewStudio.TV.avi
    Format : AVI
    Format/Info : Audio Video Interleave
    File size : 1 000 MiB
    Duration : 1h 21mn
    Overall bit rate : 1 720 Kbps
    Writing application : VirtualDubMod 1.5.10.2 (build 2540/release)
    Writing library : VirtualDubMod build 2540/release
    Video
    ID : 0
    Format : MPEG-4 Visual
    Format profile : Advanced Simple@L5
    Format settings, BVOP : 2
    Format settings, QPel : No
    Format settings, GMC : No warppoints
    Format settings, Matrix : Default (MPEG)
    Codec ID : XVID
    Codec ID/Hint : XviD
    Duration : 1h 21mn
    Bit rate : 1 450 Kbps
    Width : 720 pixels
    Height : 360 pixels
    Display aspect ratio : 2.000
    Frame rate : 23.976 fps
    Color space : YUV
    Chroma subsampling : 4:2:0
    Bit depth : 8 bits
    Scan type : Progressive
    Compression mode : Lossy
    Bits/(Pixel*Frame) : 0.233
    Stream size : 843 MiB (84%)
    Writing library : XviD 73
    Audio #1
    ID : 1
    Format : MPEG Audio
    Format version : Version 1
    Format profile : Layer 3
    Mode : Joint stereo
    Mode extension : MS Stereo
    Codec ID : 55
    Codec ID/Hint : MP3
    Duration : 1h 21mn
    Bit rate mode : Constant
    Bit rate : 128 Kbps
    Channel(s) : 2 channels
    Sampling rate : 48.0 KHz
    Compression mode : Lossy
    Stream size : 74.4 MiB (7%)
    Alignment : Aligned on interleaves
    Interleave, duration : 42 ms (1.00 video frame)
    Interleave, preload duration : 504 ms
    Audio #2
    ID : 2
    Format : MPEG Audio
    Format version : Version 1
    Format profile : Layer 3
    Mode : Joint stereo
    Codec ID : 55
    Codec ID/Hint : MP3
    Duration : 1h 21mn
    Bit rate mode : Constant
    Bit rate : 128 Kbps
    Channel(s) : 2 channels
    Sampling rate : 48.0 KHz
    Compression mode : Lossy
    Stream size : 74.4 MiB (7%)
    Alignment : Aligned on interleaves
    Interleave, duration : 42 ms (1.00 video frame)
    Interleave, preload duration : 504 ms
    Writing library : LAME3.99r
    Encoding settings : -m j -V 4 -q 2 -lowpass 17 -b 128


    Скриншоты для ознакомления




    11/22/63/11.22.63 (2016) HDTVRip (сезон 1, серия 1 из 8) NewStudio (обновляемая)
    загрузка...
    Рейтинг →
     (голосов: 1, оценка 5/5, голосовать можно 1 раз )

    Другие торренты по теме:

  • Вавилон-Берлин / Babylon Berlin (2017) HDTVRip (сезон 1, серии 1-2 из 8) SDI Media (обновляемая)
  • Подпольная империя (Преступная империя) / Boardwalk Empire (2014) HDTVRip (Сезон 5, серии 1-3 из 8) Ю.Сербин (обновляемая)
  • Больница Никербокер / The Knick (2014) HDTVRip (Сезон 1, серии 1-6 из 10) (BaibaKo) (обновляемая)
  • Discovery: Через червоточину с Морганом Фрименом / Through The Wormhole with Morgan Freeman (2014) HDTVRip (Сезон №5, серия №10)
  • Стелла / Stella (2012) HDTVRip (Сезон 1, серии 1-8 из 10) ViruseProject (обновляемая)
  • Запертая комната / Kagi no Kakatta Heya (2012) HDTVRip (сезон 1, серии 1-5 из 11) [JAP] ViruseProject (обновляемая)
  • За пределами / Выжившая / Род человеческий / Extant (2014) HDTVRip (Сезон 1, серии 1-12 из 13) (Amedia) (обновляемая)
  • Лотерея / The Lottery (2014) HDTVRip (Сезон 1, серии 1-9 из 10) ViruseProject (обновляемая)


    • Комментарии (0):

      Информация

      Информация

        Посетители, находящиеся в группе Гости, не могут оставлять комментарии в данной новости.

        ↓ Меню




        ↓ Опрос

        Вы добавили сайт в закладки?
        Да
        Нет


        Top 10 за месяц (Фильмы)