.
Авторизация | Регистрация
Хочешь лучшие торренты? Добавь свой email!
Добавить

Торрент скачать бесплатно

» » 11 / 22 / 63 / 11.22.63 (2016) HDTVrip [H.264 / 720p-LQ] (сезон 1, серии 1 из 10) OMSKBIRD (обновляемая) торрент скачать бесплатно




    11 / 22 / 63 / 11.22.63 (2016) HDTVrip [H.264 / 720p-LQ] (сезон 1, серии 1 из 10) OMSKBIRD (обновляемая) торрент скачать бесплатно

    Опубликовал: Админ | Дата: 18-02-2016, 04:00 | Просмотров: 35

    Производство: США/Bad Robot, Warner Bros. Television
    Жанр: фантастика, триллер, детектив
    Режиссер: Джеймс Стронг, Фред Туа, Джеймс Кент

    Актеры
    Джеймс Франко, Крис Купер, Джош Дюамель, Люси Фрай, Сара Гадон, Черри Джонс, Т.Р. О таком странном сюжете не догадывалась даже Земфира. Найт, Джордж МакКэй, Даниэль Уэббер и др.

    Описание

    Фантастический фильм по роману Стивена Кинга 11/22/63. Джейк Эппинг – учитель английского языка в средней школе. Один из его учеников пишет эссе о том, что случилось 50 лет назад. Отец одного мальчика пришел домой пьяным и забил молотком свою жену, двух сыновей и дочь. Мальчик остался жив, но с тех пор хромает. Друг Джейка предлагает ему отправиться в 1958 год и предотвратить убийство президента Джона Кеннеди. Джейк не только спасает семью того мальчика, но и выслеживает убийцу Кеннеди.

    Дата мировой премьеры: 17.01.2016
    Продолжительность: ~01: 20: 00 серия
    Качество видео: HDTVrip 720p
    Перевод: Многоголосый закадровый, профессиональный | OMSKBIRD
    Видео: AVC/H.264, 1280x640, ~2500 kbps
    Аудио # 1 Rus: AC-3, 6 ch, 384 kbps, CBR - многоголосый закадровый
    Аудио # 2 Eng: AC-3, 6 ch, 384 kbps, CBR - оригинал
    Код:

    General
    Unique ID : 178953791189948464730696266778338176711 (0x86A13F1B5F942DA8B666C2F638E8AEC7)
    Complete name : F:Мои ДокументыВидеоРАЗДАЧИ11.22.6311.22.63 S01 HDTVrip 720p (OMSKBIRD)11.22.63 S01E01 HDTVrip 720p (OMSKBIRD).mkv
    Format : Matroska
    Format version : Version 2
    File size : 1.82 GiB
    Duration : 1h 20mn
    Overall bit rate : 3 232 Kbps
    Encoded date : UTC 2016-02-15 22:42:23
    Writing application : mkvmerge v4.0.0 (\'The Stars were mine\') сборка от Jun 6 2010 16:18:42
    Writing library : libebml v1.0.0 + libmatroska v1.0.0
    Video
    ID : 1
    Format : AVC
    Format/Info : Advanced Video Codec
    Format profile :High@L4.1
    Format settings, CABAC : Yes
    Format settings, ReFrames : 9 frames
    Codec ID : V_MPEG4/ISO/AVC
    Duration : 1h 20mn
    Bit rate : 2 400 Kbps
    Width : 1 280 pixels
    Height : 640 pixels
    Display aspect ratio : 2.000
    Frame rate : 23.976 fps
    Color space : YUV
    Chroma subsampling : 4:2:0
    Bit depth : 8 bits
    Scan type : Progressive
    Bits/(Pixel*Frame) : 0.122
    Stream size : 1.35 GiB (74%)
    Writing library : x264 core 148 r2638 7599210
    Encoding settings : cabac=1/ref=9/deblock=1:-2:-2/analyse=0x3:0x133/me=umh/subme=10/psy=1/psy_rd=1.00:0.00/mixed_ref=1/me_range=32/chroma_me=1/trellis=2/8x8dct=1/cqm=0/deadzone=21, 11/fast_pskip=0/chroma_qp_offset=-2/threads=20/lookahead_threads=2/sliced_threads=0/nr=0/decimate=1/interlaced=0/bluray_compat=0/constrained_intra=0/bframes=5/b_pyramid=2/b_adapt=2/b_bias=0/direct=3/weightb=1/open_gop=0/weightp=2/keyint=250/keyint_min=23/scenecut=40/intra_refresh=0/rc_lookahead=60/rc=crf/mbtree=1/crf=18.0/qcomp=0.60/qpmin=0/qpmax=69/qpstep=4/ip_ratio=1.40/aq=1:1.00
    Language : English
    Default : No
    Forced : No
    Matrix coefficients : BT.709-5, BT.1361, IEC 61966-2-4 709, SMPTE RP177
    Audio #1
    ID : 2
    Format : AC-3
    Format/Info : Audio Coding 3
    Mode extension : CM (complete main)
    Format settings, Endianness : Big
    Codec ID : A_AC3
    Duration : 1h 20mn
    Bit rate mode : Constant
    Bit rate : 384 Kbps
    Channel(s) : 6 channels
    Channel positions : Front: L C R, Side: L R, LFE
    Sampling rate : 48.0 KHz
    Bit depth : 16 bits
    Compression mode : Lossy
    Stream size : 222 MiB (12%)
    Language : Russian
    Default : Yes
    Forced : No
    Audio #2
    ID : 3
    Format : AC-3
    Format/Info : Audio Coding 3
    Mode extension : CM (complete main)
    Format settings, Endianness : Big
    Codec ID : A_AC3
    Duration : 1h 20mn
    Bit rate mode : Constant
    Bit rate : 384 Kbps
    Channel(s) : 6 channels
    Channel positions : Front: L C R, Side: L R, LFE
    Sampling rate : 48.0 KHz
    Bit depth : 16 bits
    Compression mode : Lossy
    Stream size : 222 MiB (12%)
    Language : English
    Default : No
    Forced : No


    Скриншоты для ознакомления




    11/22/63/11.22.63 (2016) HDTVrip [H.264/720p-LQ] (сезон 1, серии 1 из 10) OMSKBIRD (обновляемая)
    загрузка...
    Рейтинг →
     (голосов: 1, оценка 4/5, голосовать можно 1 раз )

    Другие торренты по теме:

  • Вавилон-Берлин / Babylon Berlin (2017) HDTVRip (сезон 1, серии 1-2 из 8) SDI Media (обновляемая)
  • NGW: Замбези / The Zambezi (2010) HDTVRip [H.264 / 720p-LQ] (эпизоды 1-2 из 2)
  • Футбол. Чемпионат Италии 2015-2016. Обзор матчей 23-го тура. (04.02.2016) HDTVRip [H.264 / 720p-LQ] (2016) HDTVRip
  • Футбол. Чемпионат Европы 2000. Отборочный турнир. Франция - Россия (05.06.1999) HDTVRip [H.264 / 720p-LQ] (2016) HDTVRip
  • Затерянный мир Александра Великого / Alexander’s Lost World (2013) HDTVRip HDTVRip [H.264 / 720p] (серии 1-6 из 6)
  • Discovery. Загадки планеты Земля / What on Earth HDTVRip (2016) HDTVRip [720p-LQ] (2 сезон: серия 1-4 из 6)
  • Не в парнях счастье (2014) HDTVRip
  • Упакованные (2013) HDTVRip


    • Комментарии (0):

      Информация

      Информация

        Посетители, находящиеся в группе Гости, не могут оставлять комментарии в данной новости.

        ↓ Меню




        ↓ Опрос

        Вы добавили сайт в закладки?
        Да
        Нет


        Top 10 за месяц (Фильмы)