.
Авторизация | Регистрация
Хочешь лучшие торренты? Добавь свой email!
Добавить

Торрент скачать бесплатно

» » Винил / Vinyl (2016) HDTVRip [H.264 / 720p-LQ] (сезон 1, серии 1 из 10) OMSKBIRD records (обновляемая) торрент скачать бесплатно




    Винил / Vinyl (2016) HDTVRip [H.264 / 720p-LQ] (сезон 1, серии 1 из 10) OMSKBIRD records (обновляемая) торрент скачать бесплатно

    Опубликовал: Админ | Дата: 17-02-2016, 04:00 | Просмотров: 131

    Производство: США/Home Box Office (HBO), Jagged Films
    Жанр: драма, музыка
    Режиссер: Аллен Култер, Джон С. Бейрд, С.Дж. Взрывоопасный вопрос, сказал кто то из толпы, к чему не понятно. Кларксон

    Актеры
    Бобби Каннавале, Оливия Уайлд, Рэй Романо, Ато Эссонда, Макс Казелла, П.Дж. Бирн, Дж.С. МакКензи, Биргитта Йорт Сёренсен, Джуно Темпл, Джек Куэйд и др.

    Описание

    Самая громкая премьера 2016 года от мэтра кино Мартина Скорсезе, кумира миллионов Мика Джаггера и сценариста Подпольной империи и Сопрано Терренса Уинтера. Сериал переносит зрителя в Нью-Йорк 1970-х годов, без прикрас изображая заряженный сексом и наркотиками музыкальный бизнес на заре панка, диско и хип-хопа. О таком странном сюжете не догадывалась даже Тимошенко. Время, по которому невозможно не ностальгировать даже тем, кто родился намного позже. По сюжету главный герой Ричи Финестра в исполнении Бобби Каннавале рвет и мечет, чтобы придумать новое направление и возродить свой звукозаписывающий лейбл, при этом преодолевая личностный кризис и неурядицы семейной жизни. Роль богемной жены с характером исполнила обворожительная Оливия Уайлд, а бизнес-партнером стал Рэй Романо. От ABBA до LedZeppelin, от Дэвида Боуи до Джеймса Брауна – сумасшедший коктейль 70-х в новой драме HB

    Дата мировой премьеры: 14.02.2016
    Дата премьеры в России: 15.02.2016
    Продолжительность: 1-я серия - 01: 48: 16
    Качество видео: HDTVRip
    Перевод: Многоголосый закадровый, профессиональный |OMSKBIRD records
    Видео: AVC/H.264, 1280x720 (16: 9), ~3199 kbps
    Аудио # 1: AC3, 6 ch, 384 kbps, CBR - OMSKBIRD records
    Аудио # 2: AC3, 6 ch, 384 kbps, CBR - оригинал
    Код:

    Общее
    Уникальный идентификатор : 220670133179107567863562651270593838301 (0xA60385903D1464EE8A089BC29DA6FCDD)
    Полное имя : G:FilmsVinyl.S01.720pVinyl.S01E01.720p.HDTVRip.OmskBird.DD5.1.mkv
    Формат : Matroska
    Версия формата : Version 4/Version 2
    Размер файла : 3, 13 Гбайт
    Продолжительность : 1 ч. 52 м.
    Общий поток : 3969 Кбит/сек
    Дата кодирования : UTC 2016-02-16 15:38:49
    Программа кодирования : mkvmerge v8.6.1 (\'Flying\') 64bit
    Библиотека кодирования : libebml v1.3.3 + libmatroska v1.4.4
    Видео
    Идентификатор : 1
    Формат : AVC
    Формат/Информация : Advanced Video Codec
    Профиль формата :High@L4.1
    Параметр CABAC формата : Да
    Параметр ReFrames формата : 5 кадров
    Идентификатор кодека : V_MPEG4/ISO/AVC
    Продолжительность : 1 ч. 52 м.
    Битрейт : 3199 Кбит/сек
    Ширина : 1280 пикселей
    Высота : 720 пикселей
    Соотношение сторон : 16:9
    Режим частоты кадров : Постоянный
    Частота кадров : 23, 976 (24000/1001) кадра/сек
    Цветовое пространство : YUV
    Субдискретизация насыщенности : 4:2:0
    Битовая глубина : 8 бит
    Тип развёртки : Прогрессивная
    Бит/(Пиксели*Кадры) : 0.145
    Размер потока : 2, 52 Гбайт (81%)
    Библиотека кодирования : x264 core 148 r2665 a01e339
    Настройки программы : cabac=1/ref=5/deblock=1:0:0/analyse=0x3:0x113/me=umh/subme=8/psy=1/psy_rd=1.00:0.00/mixed_ref=1/me_range=16/chroma_me=1/trellis=1/8x8dct=1/cqm=0/deadzone=21, 11/fast_pskip=1/chroma_qp_offset=-2/threads=22/lookahead_threads=3/sliced_threads=0/nr=0/decimate=1/interlaced=0/bluray_compat=0/constrained_intra=0/bframes=3/b_pyramid=2/b_adapt=2/b_bias=0/direct=3/weightb=1/open_gop=0/weightp=2/keyint=250/keyint_min=23/scenecut=40/intra_refresh=0/rc_lookahead=50/rc=crf/mbtree=1/crf=18.0/qcomp=0.60/qpmin=0/qpmax=69/qpstep=4/ip_ratio=1.40/aq=1:1.00
    Язык : English
    Default : Да
    Forced : Нет
    colour_range : Limited
    Коэффициенты матрицы : BT.709
    Аудио #1
    Идентификатор : 2
    Формат : AC-3
    Формат/Информация : Audio Coding 3
    Расширение режима : CM (complete main)
    Параметр Endianness формата : Big
    Идентификатор кодека : A_AC3
    Продолжительность : 1 ч. 52 м.
    Вид битрейта : Постоянный
    Битрейт : 384 Кбит/сек
    Каналы : 6 каналов
    Расположение каналов : Front: L C R, Side: L R, LFE
    Частота : 48, 0 КГц
    Частота кадров : 31, 250 кадров/сек (1536 spf)
    Метод сжатия : С потерями
    Размер потока : 310 Мбайт (10%)
    Заголовок : OmskBird 5.1
    Язык : Russian
    Default : Да
    Forced : Нет
    Аудио #2
    Идентификатор : 3
    Формат : AC-3
    Формат/Информация : Audio Coding 3
    Расширение режима : CM (complete main)
    Параметр Endianness формата : Big
    Идентификатор кодека : A_AC3
    Продолжительность : 1 ч. 52 м.
    Вид битрейта : Постоянный
    Битрейт : 384 Кбит/сек
    Каналы : 6 каналов
    Расположение каналов : Front: L C R, Side: L R, LFE
    Частота : 48, 0 КГц
    Частота кадров : 31, 250 кадров/сек (1536 spf)
    Метод сжатия : С потерями
    Размер потока : 310 Мбайт (10%)
    Заголовок : original 5.1
    Язык : English
    Default : Нет
    Forced : Нет


    Скриншоты для ознакомления




    Онлайн видео Винил



    Винил/Vinyl (2016) HDTVRip [H.264/720p-LQ] (сезон 1, серии 1 из 10) OMSKBIRD records (обновляемая)
    загрузка...
    Рейтинг →
     (голосов: 1, оценка 5/5, голосовать можно 1 раз )

    Другие торренты по теме:

  • Винил / Vinyl (2016) HDTV [H.264 / 1080p-LQ] (сезон 1, серии 1 из 10) Amedia (обновляемая)
  • Винил / Vinyl (2016) HDTVRip [H.264 / 720p-LQ] (сезон 1, серии 1 из 10) Amedia (обновляемая)
  • Винил / Vinyl (2016) HDTVRip (сезон 1, серии 1 из 10) Amedia (обновляемая)
  • Винил / Vinyl (2016) HDTVRip (сезон 1, серии 1 из 10) OMSKBIRD records (обновляемая)
  • Винил / Vinyl (2016) HDTVRip (сезон 1, серии 1-2 из 10) NewStudio (обновляемая)


    • Комментарии (0):

      Информация

      Информация

        Посетители, находящиеся в группе Гости, не могут оставлять комментарии в данной новости.

        ↓ Меню




        ↓ Опрос

        Вы добавили сайт в закладки?
        Да
        Нет


        Top 10 за месяц (Фильмы)