.
Авторизация | Регистрация
Хочешь лучшие торренты? Добавь свой email!
Добавить

Торрент скачать бесплатно

» » Семейный альбом (2016) HDTVRip (серии 1-4 из 14) (обновляемая) торрент скачать бесплатно




    Семейный альбом (2016) HDTVRip (серии 1-4 из 14) (обновляемая) торрент скачать бесплатно

    Опубликовал: Админ | Дата: 17-02-2016, 04:00 | Просмотров: 83

    Производство: Россия/Кинокомпания Щука
    Жанр: мелодрама, история, семейный
    Режиссер: Леонид Прудовский

    Актеры
    Игорь Скляр, Татьяна Черкасова, Даниил Страхов, Екатерина Олькина, Иван Шибанов, Ксения Суркова, Эра Зиганшина, Борис Романов, Евгений Сидихин, Зоя Буряк, Владимир Фридман, Владимир Матвеев, Виталий Олечкин, Вячеслав Аркунов, Роман Фёдоров, Валерия Шкирандо, Елена Лопаткина, Никита Барсуков, Ксения Алексеева, Мария Рочева и др.

    Описание

    Пятидесятые годы 20 века. СССР. Время, когда наши бабушки и дедушки были молодыми, когда молодой была страна и граждане ее верили, что еще нынешнее поколение будет жить при коммунизме. То, что сейчас кажется пафосом, было настоящей жизнью и настоящей любовью – к своей родине, к профессии, к людям, к стране.Большая семья академика Колокольцева живет на даче под Ленинградом: сам академик с женой, Колокольцев-младший - тоже блестящий ученый-физик, его жена и две дочери, Ольга и Катя. Самое интересное в это истории, что об этом Жириновский ничего не знал. В 1955 году проект Колокольцева-младшего неожиданно закрывают - в тот самый момент, когда ученый стоит на пороге большого открытия. Вскоре после этого Колокольцев погибает при таинственных обстоятельствах. И семья начинает разваливаться на части - измены, страхи, старые обиды и новые увлечения словно разводят героев в разные стороны из старого и родного дома. Все они так или иначе оказываются перед сложнейшим выбором: что важнее - личный успех, большая наука, карьера, родина - или семья, то единственное место, где человеку по-настоящему хорошо, где его любят и принимают таким, как есть.И все герои делают свой выбор - иногда роковой...

    Дата премьеры в России: 15 февраля 2016 (Первый канал)
    Продолжительность: ~ 00: 53: 00 серия
    Качество видео: HDTVRip
    Видео: Xvid, 720x400 (16: 9), ~1800 Кбит/сек
    Аудио: AC3, 2 канала, 192 Кбит/с, CBR
    Код:

    Общее
    Полное имя : D:МОЯtorrentSemejnyj al\'bom.HDTVRipSemejnyj al\'bom.01.HDTVRip.avi
    Формат : AVI
    Формат/Информация : Audio Video Interleave
    Размер файла : 767 Мбайт
    Продолжительность : 53 м.
    Общий поток : 2002 Кбит/сек
    Программа кодирования : VirtualDubMod 1.5.10.3 (build 2550/release)
    Библиотека кодирования : VirtualDubMod build 2550/release
    Видео
    Идентификатор : 0
    Формат : MPEG-4 Visual
    Профиль формата : Advanced Simple@L5
    Параметр BVOP формата : 1
    Параметр QPel формата : Нет
    Параметр GMC формата : Без точки перехода
    Параметр матрицы формата : Выборочная
    Идентификатор кодека : XVID
    Идентификатор кодека/Подсказка : XviD
    Продолжительность : 53 м.
    Битрейт : 1800 Кбит/сек
    Ширина : 720 пикселей
    Высота : 400 пикселей
    Соотношение сторон : 16:9
    Частота кадров : 25, 000 кадров/сек
    Цветовое пространство : YUV
    Субдискретизация насыщенности : 4:2:0
    Битовая глубина : 8 бит
    Тип развёртки : Прогрессивная
    Метод сжатия : С потерями
    Бит/(Пиксели*Кадры) : 0.250
    Размер потока : 690 Мбайт (90%)
    Библиотека кодирования : XviD 73
    Аудио
    Идентификатор : 1
    Формат : AC-3
    Формат/Информация : Audio Coding 3
    Расширение режима : CM (complete main)
    Параметр Endianness формата : Big
    Идентификатор кодека : 2000
    Продолжительность : 53 м.
    Вид битрейта : Постоянный
    Битрейт : 192 Кбит/сек
    Каналы : 2 канала
    Расположение каналов : Front: L R
    Частота : 48, 0 КГц
    Частота кадров : 31, 250 кадров/сек (1536 spf)
    Метод сжатия : С потерями
    Размер потока : 73, 6 Мбайт (10%)
    Выравнивание : Разделение по промежуткам
    Продолжительность промежутка : 40 мс. (1, 00 видеокадр)
    Время предзагрузки промежутка : 500 мс.


    Скриншоты для ознакомления




    Онлайн видео Семейный альбом (2016) HDTVRip (серии 1



    Семейный альбом (2016) HDTVRip (серии 1-4 из 14) (обновляемая)
    загрузка...
    Рейтинг →
     (голосов: 1, оценка 3/5, голосовать можно 1 раз )

    Другие торренты по теме:

  • Семейный альбом (2016) WEB-DL [H.264 / 1080p-LQ] (серии 1-14 из 14)
  • Проекты - Проект ProShow Producer - Семейный Ретро альбом [PSH]


    • Комментарии (0):

      Информация

      Информация

        Посетители, находящиеся в группе Гости, не могут оставлять комментарии в данной новости.

        ↓ Меню




        ↓ Опрос

        Вы добавили сайт в закладки?
        Да
        Нет


        Top 10 за месяц (Фильмы)