.
Авторизация | Регистрация
Хочешь лучшие торренты? Добавь свой email!
Добавить

Торрент скачать бесплатно

» » Человек без прошлого (2015) HDTVRip [H.264] (серии 1-8 из 16) (обновляемая) торрент скачать бесплатно




    Человек без прошлого (2015) HDTVRip [H.264] (серии 1-8 из 16) (обновляемая) торрент скачать бесплатно

    Опубликовал: Админ | Дата: 15-02-2016, 04:00 | Просмотров: 132

    Производство: Россия/Платформа Кино по заказу НТВ
    Жанр: детектив
    Режиссер: Эмилис Веливис

    Актеры
    Михаил Евланов, Дмитрий Лавров, Юрий Цурило, Роман Мадянов, Игорь Арташонов, Андрей Финягин, Светлана Устинова, Анна Попова, Евгений Атарик, Иван Шмаков, Александр Кузнецов, Юрий Архангельский, Юлия Такшина, Геннадий Венгеров и др.

    Описание

    Игорь Романов и Павел Грошев когда-то давно были друзьями, а сейчас оказались по разные стороны баррикад. Романов работает на крупного наркоторговца, а Грошев – опер в Госнаркоконтроле. Случайная встреча оказывается для обоих роковой. Грошев срывает Романову криминальную сделку на три миллионов долларов, но взять бывшего друга с поличным ему не удаётся. В итоге, наркотики и деньги бесследно пропадают, а Романов, тяжело раненный в голову, полностью теряет память. Наркоторговцы подозревают Романова в том, что это он украл наркотики и деньги. Грошева отстраняют от службы и обвиняют в превышении полномочий и попытке убить бывшего друга. Куда делся груз и деньги? Кто хочет убить Романова? И на кого он на самом деле работает? Бывшим друзьям, оказавшимся вне закона, приходится объединить усилия, чтобы ответить на эти вопросы.

    Дата премьеры в России: 8 февраля 2016
    Релиз от: Серый1779
    Продолжительность: ~00: 44: 00 серия
    Качество видео: HDTVRip
    Видео: AVC/H.264, 1024x576 (16: 9), ~2000 Кбит/с
    Аудио: AC3, 2 канала, 192 Кбит/с, CBR
    Код:

    Общее
    Уникальный идентификатор : 230587860114484079173018867505450519513 (0xAD799B410196CC7EA24B92FDF6210BD9)
    Полное имя : D:МОЯtorrentЧеловек без прошлого.2015.HDTVRip.(AVC)Chelovek.bez.proshlogo.(01.seriya).2015.HDTVRip.(AVC).mkv
    Формат : Matroska
    Версия формата : Version 2
    Размер файла : 692 Мбайт
    Продолжительность : 44 м.
    Общий поток : 2194 Кбит/сек
    Дата кодирования : UTC 2016-02-09 06:05:26
    Программа кодирования : mkvmerge v6.1.0 (\'Old Devil\') built on Mar 4 2013 09:10:42
    Библиотека кодирования : libebml v1.3.0 + libmatroska v1.4.0
    Видео
    Идентификатор : 1
    Формат : AVC
    Формат/Информация : Advanced Video Codec
    Профиль формата :High@L4.1
    Параметр CABAC формата : Да
    Параметр ReFrames формата : 9 кадров
    Идентификатор кодека : V_MPEG4/ISO/AVC
    Продолжительность : 44 м.
    Битрейт : 2000 Кбит/сек
    Ширина : 1024 пикселя
    Высота : 576 пикселей
    Соотношение сторон : 16:9
    Режим частоты кадров : Постоянный
    Частота кадров : 25, 000 кадров/сек
    Цветовое пространство : YUV
    Субдискретизация насыщенности : 4:2:0
    Битовая глубина : 8 бит
    Тип развёртки : Прогрессивная
    Бит/(Пиксели*Кадры) : 0.136
    Размер потока : 618 Мбайт (89%)
    Библиотека кодирования : x264 core 130 r2273 b3065e6
    Настройки программы : cabac=1/ref=9/deblock=1:-2:-1/analyse=0x3:0x133/me=umh/subme=9/psy=1/psy_rd=1.00:0.15/mixed_ref=1/me_range=32/chroma_me=1/trellis=2/8x8dct=1/cqm=0/deadzone=21, 11/fast_pskip=0/chroma_qp_offset=-3/threads=6/lookahead_threads=1/sliced_threads=0/nr=0/decimate=1/interlaced=0/bluray_compat=0/constrained_intra=0/bframes=9/b_pyramid=2/b_adapt=2/b_bias=0/direct=1/weightb=1/open_gop=0/weightp=2/keyint=250/keyint_min=25/scenecut=40/intra_refresh=0/rc=2pass/mbtree=0/bitrate=2000/ratetol=1.0/qcomp=0.60/qpmin=0/qpmax=69/qpstep=4/cplxblur=20.0/qblur=0.5/ip_ratio=1.40/pb_ratio=1.30/aq=2:1.00
    Default : Да
    Forced : Нет
    Цветовой диапазон : Limited
    Основные цвета : BT.709
    Характеристики трансфера : BT.709
    Коэффициенты матрицы : BT.709
    Аудио
    Идентификатор : 2
    Формат : AC-3
    Формат/Информация : Audio Coding 3
    Расширение режима : CM (complete main)
    Параметр Endianness формата : Big
    Идентификатор кодека : A_AC3
    Продолжительность : 44 м.
    Вид битрейта : Постоянный
    Битрейт : 192 Кбит/сек
    Каналы : 2 канала
    Расположение каналов : Front: L R
    Частота : 48, 0 КГц
    Частота кадров : 31, 250 кадров/сек (1536 spf)
    Метод сжатия : С потерями
    Размер потока : 60, 6 Мбайт (9%)
    Default : Да
    Forced : Нет


    Скриншоты для ознакомления




    Онлайн видео Человек без прошлого (2015) HDTVRip [H.264] (серии 1



    Человек без прошлого (2015) HDTVRip [H.264] (серии 1-8 из 16) (обновляемая)
    загрузка...
    Рейтинг →
     (голосов: 1, оценка 4/5, голосовать можно 1 раз )

    Другие торренты по теме:

  • Человек без прошлого / Mies vailla menneisyytta (2002) BDRip [720p]
  • Человек без прошлого (2015) SATRip (серии 1-4 из 16) (обновляемая)
  • Человек без прошлого (2015) HDTVRip (сезон 1, серии 1-16 из 16)


    • Комментарии (0):

      Информация

      Информация

        Посетители, находящиеся в группе Гости, не могут оставлять комментарии в данной новости.

        ↓ Меню




        ↓ Опрос

        Вы добавили сайт в закладки?
        Да
        Нет


        Top 10 за месяц (Фильмы)