.
Авторизация | Регистрация
Хочешь лучшие торренты? Добавь свой email!
Добавить

Торрент скачать бесплатно

» » Тайны следствия (2004) WEBRip (сезон 4, серии 1-12 из 12) торрент скачать бесплатно




    Тайны следствия (2004) WEBRip (сезон 4, серии 1-12 из 12) торрент скачать бесплатно

    Опубликовал: Админ | Дата: 9-02-2016, 04:01 | Просмотров: 72

    Производство: Россия/Студия Панорама, ООО Новый русский сериал
    Жанр: Детектив, Криминал
    Режиссер: Александр Бурцев

    Актеры
    Анна Ковальчук, Вячеслав Захаров, Сергей Барышев, Александр Новиков , Александр Шпилько, Мирослав Малич, Эмилия Спивак, Юлия Яковлева, Андрей Шарков, Владимир Акимов , Владимир Мойковский, Борис Матвеев, Роман Громадский, Игорь Григорьев , Олег Алмазов, Игорь Николаев , Ксения Баринова, Евгений Чудаков, Галина Мамчистова, Антон Забелин, Сергей Агеенков, Анатолий Журавин, Ирина Шойхет, Дмитрий Титов (II), Оксана Скачкова, Ник Тихонов, Нина Евдокимова, Александр Кладько, Вячеслав Кушнир, Юлия Рудина, Юра Смирнов, Алексей Гурьев, Юрий Каменев, Светлана Щедрина, Леонид Улащенко, и др.

    Описание

    Главные герои сериала Тайны следствия прекрасно сочетают в себе эмоциональную выразительность, способность идти на компромиссы, смелость принимаемых решений и профессиональную интуицию...
    Петербург изобилует все новыми и новыми происшествиями. В жизни районной прокуратуры постоянно что-то происходит. Покушения и убийства, грабежи и разбойные нападения, приправленные похищениями любовные истории...

    Продолжительность: ~ 00: 45: 00 серия
    Качество видео: WEBRip
    Видео: Xvid, 720x540 (4: 3), ~2097 Kbps
    Аудио: AC3, 2 ch, 192 Kbps, CBR
    Код:

    Общее
    Полное имя : D:Мои фильмыTajny_sledstvija_S4_1-12iz12_2004_XviD_WEBRip1. Истинные ценности (1 сер.).avi
    Формат : AVI
    Формат/Информация : Audio Video Interleave
    Размер файла : 745 Мбайт
    Продолжительность : 45 м.
    Общий поток : 2299 Кбит/сек
    Библиотека кодирования : VirtualDub build 35491/release
    Видео
    Идентификатор : 0
    Формат : MPEG-4 Visual
    Профиль формата : Advanced Simple@L5
    Параметр BVOP формата : 2
    Параметр QPel формата : Нет
    Параметр GMC формата : Без точки перехода
    Параметр матрицы формата : Default (H.263)
    Идентификатор кодека : XVID
    Идентификатор кодека/Подсказка : XviD
    Продолжительность : 45 м.
    Битрейт : 2097 Кбит/сек
    Ширина : 720 пикселей
    Высота : 540 пикселей
    Соотношение сторон : 4:3
    Частота кадров : 25, 000 кадров/сек
    Цветовое пространство : YUV
    Субдискретизация насыщенности : 4:2:0
    Битовая глубина : 8 бит
    Тип развёртки : Прогрессивная
    Метод сжатия : С потерями
    Бит/(Пиксели*Кадры) : 0.216
    Размер потока : 680 Мбайт (91%)
    Библиотека кодирования : XviD 67
    Аудио
    Идентификатор : 1
    Формат : AC-3
    Формат/Информация : Audio Coding 3
    Расширение режима : CM (complete main)
    Параметр Endianness формата : Big
    Идентификатор кодека : 2000
    Продолжительность : 45 м.
    Вид битрейта : Постоянный
    Битрейт : 192 Кбит/сек
    Каналы : 2 канала
    Расположение каналов : Front: L R
    Частота : 48, 0 КГц
    Частота кадров : 31, 250 кадров/сек (1536 spf)
    Метод сжатия : С потерями
    Размер потока : 62, 3 Мбайт (8%)
    Выравнивание : Соединение по промежуткам
    Продолжительность промежутка : 40 мс. (1, 00 видеокадр)
    Время предзагрузки промежутка : 512 мс.


    Скриншоты для ознакомления




    Онлайн видео Тайны следствия (2004) WEBRip (сезон любимого сериала 4, серии 1



    Тайны следствия (2004) WEBRip (сезон 4, серии 1-12 из 12)
    загрузка...
    Рейтинг →
     (голосов: 1, оценка 5/5, голосовать можно 1 раз )

    Другие торренты по теме:

  • Тайны следствия (2014) HDTV [H.264 / 1080i-LQ] (сезон 14, серия 1-8 из 16) (обновляемая) скачать через торрент бесплатно
  • Тайны следствия (2014) SATRip (сезон 14, серии 1-8 из 16) (обновляемая) скачать через торрент бесплатно
  • Тайны следствия (2015) SATRip (сезон 15, серии 1-3 из 12) (обновляемая) скачать через торрент бесплатно
  • Тайны следствия (2015) SATRip [H.264] (сезон 15, серии 1-3 из 12) (обновляемая) скачать через торрент бесплатно
  • Тайны следствия (2015) HDTV [H.264 / 1080i] (сезон 15, серии 1-16 из 16) скачать через торрент бесплатно
  • Тайны следствия (2002) WEBRip (сезон 2, серии 1-12 из 12)
  • Тайны следствия (2001) WEBRip (сезон 1, серии 1-16 из 16)
  • Тайны следствия (2003) WEBRip (сезон 3, серий 1-12 из 12)


    • Комментарии (0):

      Информация

      Информация

        Посетители, находящиеся в группе Гости, не могут оставлять комментарии в данной новости.

        ↓ Меню




        ↓ Опрос

        Вы добавили сайт в закладки?
        Да
        Нет


        Top 10 за месяц (Фильмы)