.
Авторизация | Регистрация
Хочешь лучшие торренты? Добавь свой email!
Добавить

Торрент скачать бесплатно

» » Идеальный день / A Perfect Day (2015) WEB-DL [H.264 / 720p-LQ] торрент скачать бесплатно




    Идеальный день / A Perfect Day (2015) WEB-DL [H.264 / 720p-LQ] торрент скачать бесплатно

    Опубликовал: Админ | Дата: 7-02-2016, 04:02 | Просмотров: 40

    Производство: Испания
    Жанр: Драма
    Режиссер: Фернандо Леон Де Араноа

    Актеры
    Бенисио Дель Торо, Тим Роббинс, Ольга Куриленко, Мелани Тьерри, Федя Стукан, Серхи Лопес, Ненад Вукелич, Франк Фейс, Мортен Суурбалле

    Описание

    Группа сотрудников гуманитарной службы пытается достать труп из колодца в зоне конфликта. Кто-то бросил туда тело, чтобы отравить воду, и местные люди мучаются от жажды. Задача, которая кажется простейшей, превращается в невыполнимую миссию, в которой злейший враг — иррациональность. Работники пересекают местность, охваченную войной, пытаясь решить эту проблему.

    Дата мировой премьеры: 16.05.2015
    Продолжительность: 01: 45: 48
    Качество видео: WEB-DL (H.264/720p)
    Перевод: Многоголосый закадровый, профессиональныйParadox OmskBird Records
    Видео: AVC/H.264, 1280x536, ~3410 kbps
    Аудио #1: AC3, 2 ch, 192 kpps — многоголосый закадровый
    Аудио #2: AC3, 6 ch, 384 kbps — оригинал (английский)
    Код:

    Общее
    Полное имя : E:CINEMAЗАРУБЕЖНОЕ КИНОNEWIdealnyj.den.2015.WEB-DL.720pIdealnyj.den.2015.WEB-DL.720p.mkv
    Формат : Matroska
    Версия формата : Version 4/Version 2
    Размер файла : 2, 95 Гбайт
    Продолжительность : 1 ч. 45 м.
    Общий поток : 3986 Кбит/сек
    Дата кодирования : UTC 2016-01-23 04:23:18
    Программа кодирования : mkvmerge v8.3.0 (\'Over the Horizon\') 64bit
    Библиотека кодирования : libebml v1.3.1 + libmatroska v1.4.2
    Видео
    Идентификатор : 1
    Формат : AVC
    Формат/Информация : Advanced Video Codec
    Профиль формата :High@L4.1
    Параметр CABAC формата : Да
    Параметр ReFrames формата : 4 кадра
    Идентификатор кодека : V_MPEG4/ISO/AVC
    Продолжительность : 1 ч. 45 м.
    Битрейт : 3410 Кбит/сек
    Ширина : 1280 пикселей
    Высота : 536 пикселей
    Соотношение сторон : 2, 40:1
    Режим частоты кадров : Постоянный
    Частота кадров : 24, 000 кадра/сек
    Цветовое пространство : YUV
    Субдискретизация насыщенности : 4:2:0
    Битовая глубина : 8 бит
    Тип развёртки : Прогрессивная
    Бит/(Пиксели*Кадры) : 0.207
    Размер потока : 2, 52 Гбайт (85%)
    Библиотека кодирования : x264 core 142 r2431+42 c69a006 tMod [8-bit@all X86_64]
    Default : Да
    Forced : Нет
    Цветовой диапазон : Limited
    Коэффициенты матрицы : BT.709
    Аудио #1
    Идентификатор : 2
    Формат : AC-3
    Формат/Информация : Audio Coding 3
    Расширение режима : CM (complete main)
    Параметр Endianness формата : Big
    Идентификатор кодека : A_AC3
    Продолжительность : 1 ч. 45 м.
    Вид битрейта : Постоянный
    Битрейт : 192 Кбит/сек
    Каналы : 2 канала
    Расположение каналов : Front: L R
    Частота : 48, 0 КГц
    Частота кадров : 31, 250 кадров/сек (1536 spf)
    Метод сжатия : С потерями
    Размер потока : 145 Мбайт (5%)
    Заголовок : Paradox Omskbird
    Язык : Russian
    Default : Да
    Forced : Нет
    Аудио #2
    Идентификатор : 3
    Формат : AC-3
    Формат/Информация : Audio Coding 3
    Расширение режима : CM (complete main)
    Параметр Endianness формата : Big
    Идентификатор кодека : A_AC3
    Продолжительность : 1 ч. 45 м.
    Вид битрейта : Постоянный
    Битрейт : 384 Кбит/сек
    Каналы : 6 каналов
    Расположение каналов : Front: L C R, Side: L R, LFE
    Частота : 48, 0 КГц
    Частота кадров : 31, 250 кадров/сек (1536 spf)
    Метод сжатия : С потерями
    Размер потока : 291 Мбайт (10%)
    Язык : English
    Default : Нет
    Forced : Нет


    Скриншоты для ознакомления




    Онлайн видео Идеальный день



    Идеальный день/A Perfect Day (2015) WEB-DL [H.264/720p-LQ]
    загрузка...
    Рейтинг →
     (голосов: 1, оценка 5/5, голосовать можно 1 раз )

    Другие торренты по теме:

  • Идеальный день / A Perfect Day (2015) WEB-DLRip [H.264]
  • Идеальный день / A Perfect Day (2015) BDRemux [H.264 / 1080p] [EN / EN Sub]
  • Идеальный день / A Perfect Day (2015) HDRip
  • Идеальный день / A Perfect Day (2015) HDRip


    • Комментарии (0):

      Информация

      Информация

        Посетители, находящиеся в группе Гости, не могут оставлять комментарии в данной новости.

        ↓ Меню




        ↓ Опрос

        Вы добавили сайт в закладки?
        Да
        Нет


        Top 10 за месяц (Фильмы)