.
Авторизация | Регистрация
Хочешь лучшие торренты? Добавь свой email!
Добавить

Торрент скачать бесплатно

» » Каждый вечер в одиннадцать (1969) SATRip [H.264] (широкоэкранная версия) торрент скачать бесплатно




    Каждый вечер в одиннадцать (1969) SATRip [H.264] (широкоэкранная версия) торрент скачать бесплатно

    Опубликовал: Админ | Дата: 5-02-2016, 04:00 | Просмотров: 54

    Производство: СССР, Мосфильм
    Жанр: Мелодрама
    Режиссер: Самсон Самсонов

    Актеры
    Маргарита Володина, Михаил Ножкин, Лариса Виккел, Леонид Каневский, Изольда Извицкая, Зоя Степанова, Михаил Бовин, Алексей Головин, Леонид Каневский, Михаил Селютин, Алла Будницкая, Ирина Бунина

    Описание

    По рассказу Анара Рзаева Я, ты и телефон.
    Как-то вечером, в кругу друзей холостяк Станислав (Михаил Ножкин) ради развлечения позвонил по телефону наугад: номер по одной цифре назвали его друзья. Вот в чём загвоздка, сказал кто то из толпы, к чему не понятно. Друзья поставили шуточное условие: Если ответит женщина, ты на ней женишься. Станислав и впрямь услышал приятный, с ноткой усталости женский голос. Что-то привлекло Станислава в этом голосе, и он захотел услышать его снова, но вспомнить номер оказалось непросто. Станислав опросил всю свою компанию и заставил каждого вспоминать свою цифру. Познакомившись с Людмилой (Маргарита Володина), Станислав понимает, что именно на этой женщине он женится.

    Продолжительность: 01: 15: 42
    Качество видео: SATRip
    Видео: AVC/H.264, 688x366@752x366 (16: 9), ~1664 Кбит/сек
    Аудио: AC3, 2 ch, 192 Кбит/сек
    Код:

    Общее
    Уникальный идентификатор : 183297889647014030961581569289184642989 (0x89E5E3B26EC655F88AF53036C94487AD)
    Полное имя : E:Каждый вечер в одиннадцать (1969) SATRip.mkv
    Формат : Matroska
    Версия формата : Version 4/Version 2
    Размер файла : 1, 00 Гбайт
    Продолжительность : 1 ч. 15 м.
    Режим общего битрейта : Переменный
    Общий поток : 1894 Кбит/сек
    Дата кодирования : UTC 2016-01-30 14:56:18
    Программа кодирования : mkvmerge v6.1.0 (\'Old Devil\') built on Mar 4 2013 09:10:42
    Библиотека кодирования : libebml v1.3.0 + libmatroska v1.4.0
    Видео
    Идентификатор : 1
    Формат : AVC
    Формат/Информация : Advanced Video Codec
    Профиль формата :Main@L3.1
    Параметр CABAC формата : Да
    Параметр ReFrames формата : 2 кадра
    Идентификатор кодека : V_MPEG4/ISO/AVC
    Продолжительность : 1 ч. 15 м.
    Вид битрейта : Переменный
    Битрейт : 1664 Кбит/сек
    Максимальный битрейт : 14, 0 Мбит/сек
    Ширина : 688 пикселей
    Высота : 366 пикселей
    Соотношение сторон : 2, 055
    Режим частоты кадров : Постоянный
    Частота кадров : 25, 000 кадров/сек
    Цветовое пространство : YUV
    Субдискретизация насыщенности : 4:2:0
    Битовая глубина : 8 бит
    Тип развёртки : Прогрессивная
    Бит/(Пиксели*Кадры) : 0.264
    Размер потока : 901 Мбайт (88%)
    Язык : Russian
    Default : Да
    Forced : Нет
    Аудио
    Идентификатор : 2
    Формат : AC-3
    Формат/Информация : Audio Coding 3
    Расширение режима : CM (complete main)
    Параметр Endianness формата : Big
    Идентификатор кодека : A_AC3
    Продолжительность : 1 ч. 15 м.
    Вид битрейта : Постоянный
    Битрейт : 192 Кбит/сек
    Каналы : 2 канала
    Расположение каналов : Front: L R
    Частота : 48, 0 КГц
    Частота кадров : 31, 250 кадров/сек (1536 spf)
    Метод сжатия : С потерями
    Размер потока : 104 Мбайт (10%)
    Язык : Russian
    Default : Да
    Forced : Нет


    Скриншоты для ознакомления




    Каждый вечер в одиннадцать (1969) SATRip [H.264] (широкоэкранная версия)
    загрузка...
    Рейтинг →
     (голосов: 1, оценка 5/5, голосовать можно 1 раз )

    Другие торренты по теме:

  • Сегодня вечером и каждый вечер / Tonight and Every Night (1945) DVDRip [H.264] [AVO] скачать через торрент бесплатно
  • Каждый вечер после работы (1973) DVBRip скачать через торрент бесплатно
  • Каждый вечер после работы (1973) SATRip [H.264] скачать через торрент бесплатно
  • Каждый вечер в одиннадцать (1969) DVDRip


    • Комментарии (0):

      Информация

      Информация

        Посетители, находящиеся в группе Гости, не могут оставлять комментарии в данной новости.

        ↓ Меню




        ↓ Опрос

        Вы добавили сайт в закладки?
        Да
        Нет


        Top 10 за месяц (Фильмы)