.
Авторизация | Регистрация
Хочешь лучшие торренты? Добавь свой email!
Добавить

Торрент скачать бесплатно

» » Вор / The Thief (1997) DVD5 скачать через торрент бесплатно




    Вор / The Thief (1997) DVD5 скачать через торрент бесплатно

    Опубликовал: Админ | Дата: 26-02-2015, 23:29 | Просмотров: 1059

    Страна: Россия
    Студия: НТВ-ПРОФИТ (Россия), Продюксьон Ле Пон (Франция), Руассифильм (Франция), при участии Госкино России, Национального Центра Кинематографии Франции, Канала + (Франция)
    Выпущено: COLUMBIA TRI STAR HOME VIDEO
    Год выпуска: 1997
    Жанр: Драма
    Продолжительность: 01: 33: 27
    Перевод: Не требуется
    Cубтитры: English, Espanol, Francais
    Описание фильма: Осенью 1952 года шестилетний Санька и его молодая мама знакомятся в поезде с красавцем военным по имени Толян. Катя влюбляется в Толяна, и все вместе они начинают жить одной семьей. Сильный и добродушный Толян почти заменяет безотцовщине Сане отца. Он учит мальчика стоять за себя, вести себя по-мужски - так, как сам понимает мужественность и в соответствии с теми правилами, по которым живет. Но правила эти - правила зоны. И вскоре выясняется, что Толян - вовсе не демобилизовавшийся офицер, а профессиональный вор. Бесплатный сыр, сказал кто то из толпы, к чему не понятно. Отныне в мальчике борются любовь и отвращение, вспышки ненависти и привязанность к этому безусловно обаятельному и совершенно аморальному человеку...
    Режиссер: Павел Чухрай
    В ролях : Владимир Машков (Толян) , Екатерина Редникова (Катя) , Михаил Филипчук (Саня) , Амалия Мордвинова (докторша) , Лидия Савченко (баба Таня) , Анна Штукатурова (девочка-хромоножка) , Ольга Пашкова (артистка) , Юрий Беляев (Саня, 48 лет)

    Рейтинг MPAA : Лицам до 17 лет обязательно присутствие взрослого

    Бонусы: Трейлер - 4х3 в американском качестве
    Меню: статичное - англоязычное
    Американский DVD R1 скачан у испанцев.
    Номинация на премию Оскар (за 1997 год) в категории Лучший фильм на иностранном языке
    Номинация на премию Ассоциации иностранной прессы Голливуда Золотой Глобус (за 1997 год) в категории Лучший фильм на иностранном языке
    Номинация на премию Феликс (за 1997 год) в категории Лучший европейский фильм
    Специальный приз жюри - Золотая медаль Сената Итальянской Республики, приз ЮНИСЕФ (детского Фонда ООН) Приз международного молодежного жюри
    General
    Complete name
    Format : MPEG-PS
    File size : 1 024 MiB
    Duration : 21mn 20s
    Overall bit rate mode : Variable
    Overall bit rate : 6 707 Kbps
    Video
    ID : 224 (0xE0)
    Format : MPEG Video
    Format version : Version 2
    Format profile : Main@Main
    Format settings, BVOP : Yes
    Format settings, Matrix : Custom
    Format settings, GOP : M=3, N=15
    Duration : 21mn 20s
    Bit rate mode : Variable
    Bit rate : 6 381 Kbps
    Maximum bit rate : 9 800 Kbps
    Width : 720 pixels
    Height : 480 pixels
    Display aspect ratio : 16: 9
    Frame rate : 29.970 fps
    Standard : NTSC
    Color space : YUV
    Chroma subsampling : 4: 2: 0
    Bit depth : 8 bits
    Scan type : Interlaced
    Scan order : Top Field First
    Compression mode : Lossy
    Bits/(Pixel*Frame) : 0.616
    Stream size : 974 MiB (95%)
    Audio
    ID : 189 (0xBD)-128 (0x80)
    Format : AC-3
    Format/Info : Audio Coding 3
    Mode extension : CM (complete main)
    Format settings, Endianness : Big
    Muxing mode : DVD-Video
    Duration : 21mn 20s
    Bit rate mode : Constant
    Bit rate : 192 Kbps
    Channel count : 2 channels
    Channel positions : Front: L R
    Sampling rate : 48.0 KHz
    Bit depth : 16 bits
    Compression mode : Lossy
    Stream size : 29.3 MiB (3%)
    Text #1
    ID : 189 (0xBD)-32 (0x20)
    Format : RLE
    Format/Info : Run-length encoding
    Muxing mode : DVD-Video
    Duration : 21mn 1s
    Delay relative to video : 13s 147ms
    Text #2
    ID : 189 (0xBD)-33 (0x21)
    Format : RLE
    Format/Info : Run-length encoding
    Muxing mode : DVD-Video
    Duration : 21mn 1s
    Delay relative to video : 13s 147ms
    Text #3
    ID : 189 (0xBD)-34 (0x22)
    Format : RLE
    Format/Info : Run-length encoding
    Muxing mode : DVD-Video
    Duration : 21mn 1s
    Delay relative to video : 13s 147ms
    Text #4
    ID : 224 (0xE0)-CC3
    Format : EIA-608
    Muxing mode, more info : Muxed in Video #1
    Bit rate mode : Constant
    Stream size : 0.00 Byte (0%)
    Menu

    Скриншоты



    Вор/The Thief (1997) DVD5 скачать через торрент бесплатно
    загрузка...
    Рейтинг →
     (голосов: 1, оценка 3/5, голосовать можно 1 раз )

    Другие торренты по теме:

  • Вор (1997) DVDRip
  • Рэки Кавахара | Ускоренный мир / Accel World - Книга 3: Сумеречный вор [2014] [M4B | AAC] скачать через торрент бесплатно
  • Иоланта и вор / Yolanda and the Thief (1945) DVDRip [H.264]
  • Повар, вор, его жена и её любовник / The Cook, the Thief, His Wife & Her Lover (1989) BDRip [H.264 / 1080p] скачать через торрент бесплатно
  • Багдадский вор / The Thief of Bagdad (1924) BDRip [H.264 / 720p] [hand made colored] скачать через торрент бесплатно
  • Не пойман – не вор / Inside Man (2006) BDRip скачать через торрент бесплатно
  • Вор, который пришел на обед / The Thief Who Came to Dinner (1973) DVDRip [EN] скачать через торрент бесплатно
  • Григорий Шаргородский | Неправильный вор (2015) [FB2]


    • Комментарии (0):

      Информация

      Информация

        Посетители, находящиеся в группе Гости, не могут оставлять комментарии в данной новости.

        ↓ Меню




        ↓ Опрос

        Вы добавили сайт в закладки?
        Да
        Нет


        Top 10 за месяц (Фильмы)