.
Авторизация | Регистрация
Хочешь лучшие торренты? Добавь свой email!
Добавить

Торрент скачать бесплатно

» » Клим (2015) WEB-DL [H.264 / 1080p-LQ] (сезон 1, серии 1-8 из 8) торрент скачать бесплатно




    Клим (2015) WEB-DL [H.264 / 1080p-LQ] (сезон 1, серии 1-8 из 8) торрент скачать бесплатно

    Опубликовал: Админ | Дата: 2-02-2016, 04:00 | Просмотров: 66

    Производство: Россия/Кинкомпания Среда
    Жанр: драма, криминал, триллер
    Режиссер: Карен Оганесян

    Актеры
    Константин Лавроненко, Дарья Мингазетдинова, Анна Вартанян, Павел Чинарёв, Сергей Шнырёв, Сергей Кудрявцев, Виталий Коваленко, Татьяна Колганова, Евгений Добряков, Григорий Чабан, Денис Старков, Валерия Кожевникова, Олег Рязанцев, Иван Николаев, Никита Панфилов, Антон Багров, Алексей Фокин и др.

    Описание

    Клим Рощин, опытный питерский следователь с уникальными навыками ученого-этолога, приступает к расследованию двойного убийства. Единственной свидетельницей преступления является дочь погибшей супружеской пары, Алиса. В деле много странностей, которые настораживают Клима. Работа поглощает все его время, поэтому он не сразу замечает, что его отношения с женой Зоей на грани краха. Уход Зои к адвокату Марку Литваку потрясает Рощина. Алиса использует эту ситуацию и начинает с Климом странную и опасную игру. Первым шагом в ней становится визит к фигуранту предыдущего дела Клима, Манскому.

    Дата премьеры в РФ: 31 января 2016
    Продолжительность: ~ 00: 50: 00 серия
    Качество видео: WEB-DL
    Видео: H.264/AVC, 1920x1080 (16: 9), ~4712 Kbps
    Аудио: AC-3, 48.0 KHz, 2 ch, 192 Kbps, CBR
    Код:
    Формат : Matroska
    Версия формата : Version 2
    Размер файла : 1, 82 Гбайт
    Продолжительность : 52 м.
    Общий поток : 5004 Кбит/сек
    Дата кодирования : UTC 2016-01-31 22:03:23
    Программа кодирования : mkvmerge v5.8.0 (\'No Sleep/Pillow\') built on Sep 2 2012 15:37:04
    Библиотека кодирования : libebml v1.2.3 + libmatroska v1.3.0
    Видео
    Идентификатор : 1
    Формат : AVC
    Формат/Информация : Advanced Video Codec
    Профиль формата :High@L4.1
    Параметр CABAC формата : Да
    Параметр ReFrames формата : 4 кадра
    Идентификатор кодека : V_MPEG4/ISO/AVC
    Продолжительность : 52 м.
    Битрейт : 4712 Кбит/сек
    Ширина : 1920 пикселей
    Высота : 1080 пикселей
    Соотношение сторон : 16:9
    Режим частоты кадров : Постоянный
    Частота кадров : 25, 000 кадров/сек
    Цветовое пространство : YUV
    Субдискретизация насыщенности : 4:2:0
    Битовая глубина : 8 бит
    Тип развёртки : Прогрессивная
    Бит/(Пиксели*Кадры) : 0.091
    Размер потока : 1, 72 Гбайт (94%)
    Язык : Russian
    Default : Да
    Forced : Да
    Аудио
    Идентификатор : 2
    Формат : AC-3
    Формат/Информация : Audio Coding 3
    Расширение режима : CM (complete main)
    Параметр Endianness формата : Big
    Идентификатор кодека : A_AC3
    Продолжительность : 52 м.
    Вид битрейта : Постоянный
    Битрейт : 192 Кбит/сек
    Каналы : 2 канала
    Расположение каналов : Front: L R
    Частота : 48, 0 КГц
    Битовая глубина : 16 бит
    Метод сжатия : С потерями
    Размер потока : 71, 6 Мбайт (4%)
    Язык : Russian
    Default : Да
    Forced : Да


    Скриншоты для ознакомления




    Онлайн видео Клим (2015) WEB-DL [H.264



    Клим (2015) WEB-DL [H.264/1080p-LQ] (сезон 1, серии 1-8 из 8)
    загрузка...
    Рейтинг →
     (голосов: 1, оценка 5/5, голосовать можно 1 раз )

    Другие торренты по теме:

  • Клим (2015) WEB-DL [H.264 / 720p-LQ] (сезон 1, серии 1-8 из 8)


    • Комментарии (0):

      Информация

      Информация

        Посетители, находящиеся в группе Гости, не могут оставлять комментарии в данной новости.

        ↓ Меню




        ↓ Опрос

        Вы добавили сайт в закладки?
        Да
        Нет


        Top 10 за месяц (Фильмы)