.
Авторизация | Регистрация
Хочешь лучшие торренты? Добавь свой email!
Добавить

Торрент скачать бесплатно

» » Опять 18! / 18 Again! (1988) DVD5 торрент скачать бесплатно




    Опять 18! / 18 Again! (1988) DVD5 торрент скачать бесплатно

    Опубликовал: Админ | Дата: 1-02-2016, 04:01 | Просмотров: 49

    Производство: США/New World Entertainment Films
    Жанр: Комедия, Фэнтези
    Режиссер: Пол Флаэрти

    Актеры
    Джордж Бёрнс, Чарли Шлаттер, Тони Робертс, Анита Морри, Мириам Флинн, Ред Баттонс, Джордж ДиЧенцо, Бернард Фокс, Кеннет Тайгар

    Описание

    Дэвиду — 18 лет, а его деду Джеку только что исполнился 81 год. У Дэвида проблемы со спортивными зачетами, потому что он увлекается рисованием и прочими искусствами. Дед в его возрасте был классным бегуном, но стал суперпрактичным бизнесменом и главой преуспевающей фирмы.
    Дэвид рядом с девушками крайне застенчив, а дед и на девятом десятке запросто склеит любую встречную молодуху. Тем не менее старик Джек, имеющий все и всех, жалеет только об одном — о том, что ему не восемнадцать лет. И однажды его мечта сбывается! В результате автомобильной катастрофы тело деда оказывается в реанимации, а душа его временно находит себе иное пристанище — в теле внука. И жизнь резко меняется для обоих.

    Продолжительность: 01: 40: 03
    Качество видео: DVD5
    Перевод: Одноголосый закадровый (Михалев)
    Субтитры: Отсутствуют
    Дополнительные материалы: Отсутствуют
    Видео: MPEG2 Video 720x480 (16: 9) 29.97fps ~ 5112 Kbps
    Аудио: Русский AC3, 2.0 Ch, 192kbps Одноголосый закадровый (Михалев)
    Аудио: Английский AC3, 2.0 Ch, 192kbps
    Код:

    Общее
    Полное имя : Snova18!VTS_01_1.VOB
    Формат : MPEG-PS
    Размер файла : 1024 Мбайт
    Продолжительность : 25 м.
    Режим общего битрейта : Переменный
    Общий поток : 5608 Кбит/сек
    Видео
    Идентификатор : 224 (0xE0)
    Формат : MPEG Video
    Версия формата : Version 2
    Профиль формата : Main@Main
    Параметр BVOP формата : Да
    Параметр матрицы формата : Выборочная
    Параметр GOP формата : Variable
    Продолжительность : 25 м.
    Вид битрейта : Переменный
    Битрейт : 5112 Кбит/сек
    Максимальный битрейт : 9602 Кбит/сек
    Ширина : 720 пикселей
    Высота : 480 пикселей
    Соотношение сторон : 16:9
    Частота кадров : 29, 970 (30000/1001) кадров/сек
    Стандарт вещания : NTSC
    Цветовое пространство : YUV
    Субдискретизация насыщенности : 4:2:0
    Битовая глубина : 8 бит
    Метод сжатия : С потерями
    Бит/(Пиксели*Кадры) : 0.494
    Временной код первого кадра : 00:00:00:00
    Оригинал временного кода : Group of pictures t_head
    GOP, открыто/закрыто : Открыто
    GOP, открыто/закрыто на первом кадре : Закрыто
    Размер потока : 933 Мбайт (91%)
    Аудио #1
    Идентификатор : 189 (0xBD)-128 (0x80)
    Формат : AC-3
    Формат/Информация : Audio Coding 3
    Профиль формата : Dolby Digital
    Расширение режима : CM (complete main)
    Параметр Endianness формата : Big
    Режим смешивания : DVD-Video
    Продолжительность : 25 м.
    Вид битрейта : Постоянный
    Битрейт : 192 Кбит/сек
    Каналы : 2 канала
    Расположение каналов : Front: L R
    Частота : 48, 0 КГц
    Частота кадров : 31, 250 кадров/сек (1536 spf)
    Метод сжатия : С потерями
    Размер потока : 35, 0 Мбайт (3%)
    Аудио #2
    Идентификатор : 189 (0xBD)-129 (0x81)
    Формат : AC-3
    Формат/Информация : Audio Coding 3
    Расширение режима : CM (complete main)
    Параметр Endianness формата : Big
    Режим смешивания : DVD-Video
    Продолжительность : 25 м.
    Вид битрейта : Постоянный
    Битрейт : 192 Кбит/сек
    Каналы : 2 канала
    Расположение каналов : Front: L R
    Частота : 48, 0 КГц
    Частота кадров : 31, 250 кадров/сек (1536 spf)
    Метод сжатия : С потерями
    Размер потока : 35, 0 Мбайт (3%)
    Текст
    Идентификатор : 224 (0xE0)-CC3
    Формат : EIA-608
    Режим смешивания, доп. информация : Muxed in Video #1
    Вид битрейта : Постоянный
    Размер потока : 0, 00 байт (0%)
    Меню


    Скриншоты для ознакомления




    Онлайн видео Опять 18!



    Опять 18!/18 Again! (1988) DVD5
    загрузка...
    Рейтинг →
     (голосов: 1, оценка 5/5, голосовать можно 1 раз )

    Другие торренты по теме:

  • David Golostchekin & Jazz Old Trio (Давид Голощекин и джазовое старое трио) - Again Together (Опять Вместе) (1999) [FLAC|Lossless]<Jazz, Mainstream Jazz> скачать через торрент бесплатно


    • Комментарии (0):

      Информация

      Информация

        Посетители, находящиеся в группе Гости, не могут оставлять комментарии в данной новости.

        ↓ Меню




        ↓ Опрос

        Вы добавили сайт в закладки?
        Да
        Нет


        Top 10 за месяц (Фильмы)