.
Авторизация | Регистрация
Хочешь лучшие торренты? Добавь свой email!
Добавить

Торрент скачать бесплатно

» » Шеф (2013) HDTVRip (сезон 2, серии 1-32 из 32) торрент скачать бесплатно




    Шеф (2013) HDTVRip (сезон 2, серии 1-32 из 32) торрент скачать бесплатно

    Опубликовал: Админ | Дата: 31-01-2016, 04:08 | Просмотров: 52

    Производство: Россия/Триикс Медиа
    Жанр: криминал
    Режиссер: Олег Ларин

    Актеры
    Андрей Чубченко, Ян Цапник, Кирилл Полухин, Эльдар Лебедев, Татьяна Колганова, Сергей Апрельский, Сергей Кошонин, Татьяна Черкасова, Игорь Павлов, Михаил Трясоруков и др.

    Описание

    Полковник полиции Виктор Расторгуев осужден за превышение должностных полномочий и отбывает наказание в одной из колоний. Там он близко сходится с бывшим майором МВД Карпатовым, осуждённым за вымогательство. Божий одуванчик, сказал кто то из толпы, к чему не понятно. Считается, что он взял всю вину на себя, чтобы не подставить непосредственного начальника — полковника Дмитрия Холодилова, ныне влиятельного генерала системы МВД.Отсидев полтора года, Расторгуев получает возможность выйти на свободу. Операция Департамента собственной безопасности МВД по внедрению полковника в окружение генерала Холодилова вступает в завершающую фазу……Но на свободе Расторгуева никто не ждёт: близкие и друзья отвернулись от него.Но внедренный в преступную группировку штатный негласный сотрудник МВД очень скоро поймет, что в этих смертельных играх он может верить только старым проверенным товарищам. И очень скоро ему понадобится их помощь и поддержка…

    Продолжительность: ~ 00: 45: 00 серия
    Качество видео: HDTVRip
    Видео: Xvid, 720x400 (16: 9), ~1462 Kbps
    Аудио: AC3, 2 ch, 192 Kbps, CBR
    Код:

    Общее
    Полное имя : D:Мои фильмыShef_S2_1-32iz32_2013_XviD_HDTVRipShef_S2_01_2013_HDTVRip.avi
    Формат : AVI
    Формат/Информация : Audio Video Interleave
    Размер файла : 555 Мбайт
    Продолжительность : 46 м.
    Общий поток : 1664 Кбит/сек
    Программа кодирования : VirtualDubMod 1.5.10.3 |www.virtualdub-fr.org|| (build 2550/release)
    Библиотека кодирования : VirtualDub build 35491/release
    Видео
    Идентификатор : 0
    Формат : MPEG-4 Visual
    Профиль формата : Advanced Simple@L5
    Параметр BVOP формата : 2
    Параметр QPel формата : Нет
    Параметр GMC формата : Без точки перехода
    Параметр матрицы формата : Default (H.263)
    Идентификатор кодека : XVID
    Идентификатор кодека/Подсказка : XviD
    Продолжительность : 46 м.
    Битрейт : 1462 Кбит/сек
    Ширина : 720 пикселей
    Высота : 400 пикселей
    Соотношение сторон : 16:9
    Частота кадров : 25, 000 кадров/сек
    Цветовое пространство : YUV
    Субдискретизация насыщенности : 4:2:0
    Битовая глубина : 8 бит
    Тип развёртки : Прогрессивная
    Метод сжатия : С потерями
    Бит/(Пиксели*Кадры) : 0.203
    Размер потока : 488 Мбайт (88%)
    Библиотека кодирования : XviD 67
    Аудио
    Идентификатор : 1
    Формат : AC-3
    Формат/Информация : Audio Coding 3
    Расширение режима : CM (complete main)
    Параметр Endianness формата : Big
    Идентификатор кодека : 2000
    Продолжительность : 46 м.
    Вид битрейта : Постоянный
    Битрейт : 192 Кбит/сек
    Каналы : 2 канала
    Расположение каналов : Front: L R
    Частота : 48, 0 КГц
    Частота кадров : 31, 250 кадров/сек (1536 spf)
    Метод сжатия : С потерями
    Размер потока : 64, 1 Мбайт (12%)
    Выравнивание : Соединение по промежуткам
    Продолжительность промежутка : 40 мс. (1, 00 видеокадр)
    Время предзагрузки промежутка : 512 мс.


    Скриншоты для ознакомления




    Онлайн видео Шеф (2013) HDTVRip (сезон любимого сериала 2, серии 1



    Шеф (2013) HDTVRip (сезон 2, серии 1-32 из 32)
    загрузка...
    Рейтинг →
     (голосов: 1, оценка 3/5, голосовать можно 1 раз )

    Другие торренты по теме:

  • Неотложка (2003) HDTVRip (сезон 1, серии 1-16 из 16)
  • Discovery: Загадки планеты Земля / What on Earth (2015-2017) HDTVRip (сезон 1-3, серии 1-30 из 30)
  • Голос (2017.09.22) HDTVRip (сезон 6, выпуск 4)
  • Подпольная империя (Преступная империя) / Boardwalk Empire (2014) HDTVRip (Сезон 5, серии 1-3 из 8) Ю.Сербин (обновляемая)
  • Больница Никербокер / The Knick (2014) HDTVRip (Сезон 1, серии 1-6 из 10) (BaibaKo) (обновляемая)
  • Discovery: Через червоточину с Морганом Фрименом / Through The Wormhole with Morgan Freeman (2014) HDTVRip (Сезон №5, серия №10)
  • Стелла / Stella (2012) HDTVRip (Сезон 1, серии 1-8 из 10) ViruseProject (обновляемая)
  • Запертая комната / Kagi no Kakatta Heya (2012) HDTVRip (сезон 1, серии 1-5 из 11) [JAP] ViruseProject (обновляемая)


    • Комментарии (0):

      Информация

      Информация

        Посетители, находящиеся в группе Гости, не могут оставлять комментарии в данной новости.

        ↓ Меню




        ↓ Опрос

        Вы добавили сайт в закладки?
        Да
        Нет


        Top 10 за месяц (Фильмы)