.
Авторизация | Регистрация
Хочешь лучшие торренты? Добавь свой email!
Добавить

Торрент скачать бесплатно

» » Шеф.Новая жизнь (2015) HDTVRip (сезон 3, серий 1-32 из 32) торрент скачать бесплатно




    Шеф.Новая жизнь (2015) HDTVRip (сезон 3, серий 1-32 из 32) торрент скачать бесплатно

    Опубликовал: Админ | Дата: 31-01-2016, 04:08 | Просмотров: 65

    Производство: Россия/Триикс Медиа
    Жанр: драма, криминал
    Режиссер: Олег Ларин

    Актеры
    Андрей Чубченко, Анна Табанина , Сергей Бледных, Павел Грязнов, Степан Пивкин, Валентина Коровникова, Вадим Лымарь , Елена Меньшикова , Игорь Власов , Валерий Смекалов и др.

    Описание

    Полковник полиции Виктор Расторгуев, дав показания на членов преступной группы, возглавлял которую его близкий друг, генерал МВД Константин Лыков, согласился на инсценировку своей гибели. Теперь он, его любимая женщина Даша Истомина и дочь Полина находятся под присмотром сотрудников Управления МВД по обеспечению безопасности лиц, подлежащих государственной защите. Переезжая из города в город, наши герои оказались в небольшом сибирском городке Томилинске. Расторгуев получил новую биографию, сменил фамилию и устроился работать в такси, он старается забыть о прошлой жизни и хочет посвятить себя дочери и любимой женщине. Взрывоопасный вопрос, сказал кто то из толпы, к чему не понятно. Но несправедливость и преступления есть везде...

    Продолжительность: ~ 00: 45: 00 серия
    Качество видео: HDTVRip
    Видео: Xvid, 720x400 (16: 9), ~1530 Kbps
    Аудио: AC3, 2 ch, 192 Kbps, CBR
    Код:

    Общее
    Полное имя : D:Мои фильмыShef_S3_1-32iz32_2015_XviD_HDTVRipShef_S3_01_2015_HDTVRip.avi
    Формат : AVI
    Формат/Информация : Audio Video Interleave
    Размер файла : 555 Мбайт
    Продолжительность : 44 м.
    Общий поток : 1731 Кбит/сек
    Программа кодирования : VirtualDubMod 1.5.10.3 |www.virtualdub-fr.org|| (build 2550/release)
    Библиотека кодирования : VirtualDub build 35491/release
    Видео
    Идентификатор : 0
    Формат : MPEG-4 Visual
    Профиль формата : Advanced Simple@L5
    Параметр BVOP формата : 2
    Параметр QPel формата : Нет
    Параметр GMC формата : Без точки перехода
    Параметр матрицы формата : Default (H.263)
    Идентификатор кодека : XVID
    Идентификатор кодека/Подсказка : XviD
    Продолжительность : 44 м.
    Битрейт : 1530 Кбит/сек
    Ширина : 720 пикселей
    Высота : 400 пикселей
    Соотношение сторон : 16:9
    Частота кадров : 25, 000 кадров/сек
    Цветовое пространство : YUV
    Субдискретизация насыщенности : 4:2:0
    Битовая глубина : 8 бит
    Тип развёртки : Прогрессивная
    Метод сжатия : С потерями
    Бит/(Пиксели*Кадры) : 0.212
    Размер потока : 491 Мбайт (88%)
    Библиотека кодирования : XviD 67
    Аудио
    Идентификатор : 1
    Формат : AC-3
    Формат/Информация : Audio Coding 3
    Расширение режима : CM (complete main)
    Параметр Endianness формата : Big
    Идентификатор кодека : 2000
    Продолжительность : 44 м.
    Вид битрейта : Постоянный
    Битрейт : 192 Кбит/сек
    Каналы : 2 канала
    Расположение каналов : Front: L R
    Частота : 48, 0 КГц
    Частота кадров : 31, 250 кадров/сек (1536 spf)
    Метод сжатия : С потерями
    Размер потока : 61, 6 Мбайт (11%)
    Выравнивание : Соединение по промежуткам
    Продолжительность промежутка : 40 мс. (1, 00 видеокадр)
    Время предзагрузки промежутка : 512 мс.


    Скриншоты для ознакомления




    Онлайн видео Шеф.Новая жизнь (2015) HDTVRip (сезон любимого сериала 3, серий 1



    Шеф.Новая жизнь (2015) HDTVRip (сезон 3, серий 1-32 из 32)
    загрузка...
    Рейтинг →
     (голосов: 1, оценка 4/5, голосовать можно 1 раз )

    Другие торренты по теме:

  • X-Tension: New Life / X: Мобилизация: Новая жизнь (2000) [Ru] (2.2 / mod 1.2.1) Repack / Mod aL скачать через торрент бесплатно
  • Шеф. Новая жизнь (2015) SATRip (сезон 3, серии 1-4 из 32) (обновляемая) скачать через торрент бесплатно
  • Шеф. Новая жизнь (2015) SATRip [H.264] (серии 1-4 из 32) (обновляемая) скачать через торрент бесплатно
  • Шеф. Новая жизнь (2015) HDTVRip [H.264 / 720p-LQ] (сезон 3, серии 1-32 из 32) скачать через торрент бесплатно
  • Шеф. Новая жизнь (2015) HDTVRip [H.264] (сезон 3, серии 1-32 из 32) скачать через торрент бесплатно
  • Новая жизнь (2013) SATRip (серии 1-6 из 10) (обновляемая)
  • Новая жизнь (2013) SATRip [H.264] (серии 1-4 из 10) (обновляемая)
  • Новая жизнь / New Life (2016) WEB-DLRip


    • Комментарии (0):

      Информация

      Информация

        Посетители, находящиеся в группе Гости, не могут оставлять комментарии в данной новости.

        ↓ Меню




        ↓ Опрос

        Вы добавили сайт в закладки?
        Да
        Нет


        Top 10 за месяц (Фильмы)