.
Авторизация | Регистрация
Хочешь лучшие торренты? Добавь свой email!
Добавить

Торрент скачать бесплатно

» » Пространство / The Expanse (2015) WEB-DLRip (сезон 1, серии 1-8 из 10) AlexFilm (обновляемая) торрент скачать бесплатно




    Пространство / The Expanse (2015) WEB-DLRip (сезон 1, серии 1-8 из 10) AlexFilm (обновляемая) торрент скачать бесплатно

    Опубликовал: Админ | Дата: 29-01-2016, 04:00 | Просмотров: 46

    Производство: США/Alcon Entertainment, Sean Daniel Company
    Жанр: фантастика, детектив
    Режиссер: Роберт Либерман, Терри МакДонаф

    Актеры
    Шоре Агдашлу, Кэс Анвар, Уэс Чэтэм, Томас Джейн, Стивен Стрейт, Илайс Туфексис, Джейн Моффат, Сара Митич, Майкл Мюррей, Джо Делфин и др.

    Описание

    Через двести лет от дня сегодняшнего некий сыщик, привыкший всё доводить до конца при любых обстоятельствах, в рамках расследования дела об исчезновении молодой женщины оказывается на борту звездолета, капитан которого решает помочь детективу в его непростом деле. Величайший заговор в истории человечества гарантируется, как и его непременное раскрытие.

    Дата мировой премьеры: 14 декабря 2015
    Продолжительность: ~00: 45: 00 серия
    Качество видео: WEB-DLRip
    Перевод: Многоголосый закадровый, профессиональный -AlexFilm
    Автор перевода: Константин Кривоногов
    Озвучка: Евгения Тихонова, Татьяна Манетина, Михаил Суслов, Владимир Курдов, Роман Сопко, Константин Погодаев
    Видео: XviD, 720x400 (16: 9), ~1400 kb/s
    Аудио Rus: MPEG Layer 3, 48, 0 kHz, 2 ch, 128 kb/s — многоголосый закадровый
    Аудио Eng: MPEG Layer 3, 48, 0 kHz, 2 ch, 128 kb/s — оригинал
    Общее
    Полное имя : D: Пространство (сезон любимого сериала 1) The Expanse (2015) WEB-DLRip - AlexFilmThe.Expanse.01e08.WEB-DLRip.Rus.Eng.AlexFilm.avi
    Формат : AVI
    Формат/Информация : Audio Video Interleave
    Размер файла : 518 Мбайт
    Продолжительность : 43 м.
    Общий поток : 1673 Кбит/сек
    Название фильма : The Expanse 1x08 @ AlexFilm
    Программа кодирования : VirtualDubMod 1.5.10.2 (build 2540/release)
    Библиотека кодирования : VirtualDubMod build 2540/release
    Видео
    Идентификатор : 0
    Формат : MPEG-4 Visual
    Профиль формата : Advanced Simple@L5
    Параметр BVOP формата : Нет
    Параметр QPel формата : Нет
    Параметр GMC формата : Без точки перехода
    Параметр матрицы формата : Default (H.263)
    Идентификатор кодека : XVID
    Идентификатор кодека/Подсказка : XviD
    Продолжительность : 43 м.
    Битрейт : 1403 Кбит/сек
    Ширина : 720 пикселей
    Высота : 400 пикселей
    Соотношение сторон : 16: 9
    Частота кадров : 23, 976 (23976/1000) кадра/сек
    Цветовое пространство : YUV
    Субдискретизация насыщенности : 4: 2: 0
    Битовая глубина : 8 бит
    Тип развёртки : Прогрессивная
    Метод сжатия : С потерями
    Бит/(Пиксели*Кадры) : 0.203
    Размер потока : 434 Мбайт (84%)
    Библиотека кодирования : XviD 73
    Аудио #1
    Идентификатор : 1
    Формат : MPEG Audio
    Версия формата : Version 1
    Профиль формата : Layer 3
    Режим : Joint stereo
    Расширение режима : MS Stereo
    Идентификатор кодека : 55
    Идентификатор кодека/Подсказка : MP3
    Продолжительность : 43 м.
    Вид битрейта : Постоянный
    Битрейт : 128 Кбит/сек
    Каналы : 2 канала
    Частота : 48, 0 КГц
    Метод сжатия : С потерями
    Размер потока : 39, 6 Мбайт (8%)
    Выравнивание : Соединение по промежуткам
    Продолжительность промежутка : 42 мс. Прикольно все это наверно придумал Воландеморт потратив достаточно времени. (1, 00 видеокадр)
    Время предзагрузки промежутка : 504 мс.
    Заголовок : Russian (AlexFilm)
    Библиотека кодирования : LAME3.99r
    Настройки программы : -m j -V 4 -q 3 -lowpass 18 -b 128
    Аудио #2
    Идентификатор : 2
    Формат : MPEG Audio
    Версия формата : Version 1
    Профиль формата : Layer 3
    Режим : Joint stereo
    Идентификатор кодека : 55
    Идентификатор кодека/Подсказка : MP3
    Продолжительность : 43 м.
    Вид битрейта : Постоянный
    Битрейт : 128 Кбит/сек
    Каналы : 2 канала
    Частота : 48, 0 КГц
    Метод сжатия : С потерями
    Размер потока : 39, 6 Мбайт (8%)
    Выравнивание : Соединение по промежуткам
    Продолжительность промежутка : 42 мс. (1, 00 видеокадр)
    Время предзагрузки промежутка : 504 мс.
    Заголовок : English
    Библиотека кодирования : LAME3.90.3


    Скриншоты для ознакомления




    Онлайн видео Пространство



    Пространство/The Expanse (2015) WEB-DLRip (сезон 1, серии 1-8 из 10) AlexFilm (обновляемая)
    загрузка...
    Рейтинг →
     (голосов: 1, оценка 3/5, голосовать можно 1 раз )

    Другие торренты по теме:

  • Пространство / The Expanse (2015) WEB-DL [H.264 / 720p-LQ] (сезон 1, серии 1 из 10) BaibaKo (обновляемая) скачать через торрент бесплатно
  • Пространство / The Expanse (2015) WEB-DLRip (сезон 1, серии 1 из 10) BaibaKo (обновляемая) скачать через торрент бесплатно
  • Пространство / Экспансия / The Expanse (2015) WEB-DLRip (сезон 1, серии 1 из 10) LostFilm (обновляемая) скачать через торрент бесплатно
  • Пространство / Экспансия / The Expanse (2015) WEB-DL [H.264 / 1080p-LQ] (сезон 1, серии 1 из 10) LostFilm (обновляемая) скачать через торрент бесплатно
  • Пространство / Экспансия / The Expanse (2015) WEB-DL [H.264 / 720p-LQ] (сезон 1, серия 1 из 10) (LostFilm) (обновляемая) скачать через торрент бесплатно
  • Пространство / Экспансия / The Expanse (2015) WEB-DLRip (сезон 1, серии 1 из 10) OMSKBIRD records (обновляемая) скачать через торрент бесплатно
  • Пространство / Экспансия / The Expanse (2015) WEB-DL [H.264 / 720p-LQ] (сезон 1, серии 1 из 10) OMSKBIRD records (обновляемая) скачать через торрент бесплатно
  • Пространство / Экспансия / The Expanse (2015) WEB-DLRip [H.264] (сезон 1, серии 1-5 из 10) LostFilm [MP4|1280x720]


    • Комментарии (0):

      Информация

      Информация

        Посетители, находящиеся в группе Гости, не могут оставлять комментарии в данной новости.

        ↓ Меню




        ↓ Опрос

        Вы добавили сайт в закладки?
        Да
        Нет


        Top 10 за месяц (Фильмы)