.
Авторизация | Регистрация
Хочешь лучшие торренты? Добавь свой email!
Добавить

Торрент скачать бесплатно

» » Секретные материалы / The X-Files (2016) WEB-DLRip [H.264] (сезон 1, серии 1-2 из 6) Jaskier (обновляемая) торрент скачать бесплатно




    Секретные материалы / The X-Files (2016) WEB-DLRip [H.264] (сезон 1, серии 1-2 из 6) Jaskier (обновляемая) торрент скачать бесплатно

    Опубликовал: Админ | Дата: 29-01-2016, 04:00 | Просмотров: 38

    Производство: США/20th Century Fox Television, Ten Thirteen Productions
    Жанр: фантастика, триллер, драма, детектив
    Режиссер: Крис Картер, Дэрин Морган, Глен Морган

    Актеры
    Дэвид Духовны, Джиллиан Андерсон, Митч Пиледжи, Уильям Б. Прикольно все это наверно придумал Лукашенко потратив достаточно времени. Дэвис, Робби Амелл, Том Брэйдвуд, Дин Хэглунд, Брюс Харвуд, Джоэл МакХэйл, Лорен Эмброуз и др.

    Описание

    Фокс Малдер и Дана Скалли снова вместе. На них выходит ведущий интернет-канала Тэд О\'Малли, специализирующийся на расследовании государственных секретов. По словам О\'Малли, он близок к раскрытию международного заговора, скрывающего от населения всю правду об инопланетянах. Малдер готов поверить О\'Малли, Скалли как всегда скептична, но, как минимум, готова выслушать аргументы...

    Дата премьеры в США: 24 января 2016
    Дата премьеры в России: 26 января 2016

    Релиз от: FAGOT100(NNM-CLUB)
    Продолжительность: ~00: 45: 00 серия
    Качество видео: WEB-DLRip
    Перевод: Многоголосый закадровый, профессиональный (Jaskier)
    Примечание: Озвучка Игоря Тарадайкина и Любовь Германовой (как на ОРТ в 1999-2000 гг.)
    Субтитры: отсутствуют
    Видео: AVC, 1024x576 (16: 9), 23.976 fps, 1 460 Kbps (0.103 bit/pixel)
    Аудио: AC-3, 48.0 KHz, 6 ch, 384 Kbps, CBR (Russian)
    Формат : Matroska
    Версия формата : Version 2
    Размер файла : 580 Мбайт
    Продолжительность : 44 м.
    Общий поток : 1833 Кбит/сек
    Дата кодирования : UTC 2016-01-28 21: 26: 49
    Программа кодирования : mkvmerge v5.3.0 (\'I could have danced\') built on Feb 9 2012 10: 38: 07
    Библиотека кодирования : libebml v1.2.3 + libmatroska v1.3.0
    Attachment : Yes
    Видео
    Идентификатор : 1
    Формат : AVC
    Формат/Информация : Advanced Video Codec
    Профиль формата : High@L4.1
    Параметр CABAC формата : Да
    Параметр ReFrames формата : 9 кадров
    Идентификатор кодека : V_MPEG4/ISO/AVC
    Продолжительность : 44 м.
    Битрейт : 1450 Кбит/сек
    Ширина : 1024 пикселя
    Высота : 576 пикселей
    Соотношение сторон : 16: 9
    Режим частоты кадров : Постоянный
    Частота кадров : 23, 976 кадра/сек
    Цветовое пространство : YUV
    Субдискретизация насыщенности : 4: 2: 0
    Битовая глубина : 8 бит
    Тип развёртки : Прогрессивная
    Бит/(Пиксели*Кадры) : 0.103
    Размер потока : 447 Мбайт (77%)
    Библиотека кодирования : x264 core 146 r2538 121396c
    Настройки программы : cabac=1/ref=9/deblock=1: -2: -2/analyse=0x3: 0x133/me=umh/subme=10/psy=1/psy_rd=1.00: 0.00/mixed_ref=1/me_range=32/chroma_me=1/trellis=2/8x8dct=1/cqm=0/deadzone=21, 11/fast_pskip=0/chroma_qp_offset=-2/threads=2/lookahead_threads=2/sliced_threads=0/nr=0/decimate=0/interlaced=0/bluray_compat=0/constrained_intra=0/bframes=6/b_pyramid=2/b_adapt=2/b_bias=0/direct=3/weightb=1/open_gop=0/weightp=2/keyint=240/keyint_min=23/scenecut=40/intra_refresh=0/rc=2pass/mbtree=0/bitrate=1450/ratetol=1.0/qcomp=0.60/qpmin=0/qpmax=69/qpstep=4/cplxblur=20.0/qblur=0.5/ip_ratio=1.40/pb_ratio=1.30/aq=1: 0.70
    Default : Да
    Forced : Нет
    Аудио
    Идентификатор : 2
    Формат : AC-3
    Формат/Информация : Audio Coding 3
    Расширение режима : CM (complete main)
    Параметр Endianness формата : Big
    Идентификатор кодека : A_AC3
    Продолжительность : 44 м.
    Вид битрейта : Постоянный
    Битрейт : 384 Кбит/сек
    Каналы : 6 каналов
    Расположение каналов : Front: L C R, Side: L R, LFE
    Частота : 48, 0 КГц
    Битовая глубина : 16 бит
    Метод сжатия : С потерями
    Размер потока : 122 Мбайт (21%)
    Заголовок : Профессиональный многоголосый Студия Jaskier
    Язык : Russian
    Default : Да
    Forced : Нет


    Скриншоты для ознакомления




    Онлайн видео Секретные материалы



    Секретные материалы/The X-Files (2016) WEB-DLRip [H.264] (сезон 1, серии 1-2 из 6) Jaskier (обновляемая)
    загрузка...
    Рейтинг →
     (голосов: 1, оценка 4/5, голосовать можно 1 раз )

    Другие торренты по теме:

  • Секретные материалы. Выпуск №60 (2014.09.) SATRip [RUS / UKR]
  • Секретные материалы: ключи от долголетия (2014) HDTVRip
  • Секретные материалы. Выпуск №59 (2014.09.23) SATRip [RUS / UKR]
  • Секретные материалы. Выпуск №58 (2014.09.22) SATRip [RUS / UKR]
  • Секретные материалы: ключи от долголетия (2014) HDTV [H.264 / 1080i]
  • Секретные материалы. Выпуск №57 (2014.09.18) SATRip [RUS / UKR]
  • Секретные материалы. Выпуск №56 (2014.09.17) SATRip [RUS / UKR]
  • Секретные материалы. Выпуск №55 (2014.09.16) SATRip [RUS / UKR]


    • Комментарии (0):

      Информация

      Информация

        Посетители, находящиеся в группе Гости, не могут оставлять комментарии в данной новости.

        ↓ Меню




        ↓ Опрос

        Вы добавили сайт в закладки?
        Да
        Нет


        Top 10 за месяц (Фильмы)