.
Авторизация | Регистрация
Хочешь лучшие торренты? Добавь свой email!
Добавить

Торрент скачать бесплатно

» » Реанимация / Чёрный код / Code Black (2015) WEB-DL [H.264 / 1080p-LQ] (сезон 1, серии 1-13 из 15) Baibako (обновляемая) торрент скачать бесплатно




    Реанимация / Чёрный код / Code Black (2015) WEB-DL [H.264 / 1080p-LQ] (сезон 1, серии 1-13 из 15) Baibako (обновляемая) торрент скачать бесплатно

    Опубликовал: Админ | Дата: 28-01-2016, 04:00 | Просмотров: 82

    Производство: США
    Жанр: Драма
    Режиссер: Адам Кэйн, Крис Мисиано, Винс Мисиано

    Актеры
    Анджела Релусио, Марша Гей Харден, Мелани Чандра, Бен Холлингсворт, Портер Харрис, Раза Джеффри, Бонни Соммервиль и др.

    Описание

    Сериал рассказывает о сотрудниках скорой помощи лос-анджелесской больницы, которые оказывают помощь пациентам в весьма непростых условиях…

    Продолжительность: ~00: 44: 00 серия
    Качество видео: WEB-DL
    Перевод: Многоголосый закадровый, профессиональный - BaibaKo
    Вид субтитров: Отсутствуют
    Видео: AVC/H.264, 1920x1080, ~ 5082 Кбит/с
    Аудио RUS: AC3, 6 ch, 384 Кбит/с
    Аудио ENG: AC3, 6 ch, 384 Кбит/с
    Код:

    General
    Unique ID : 201869862388114946802125067644050082415 (0x97DEB8A615D452E785897DC5F5080A6F)
    Complete name : F:Code.BlackCode.Black.s01e01.mkv
    Format : Matroska
    Format version : Version 4/Version 2
    File size : 1.85 GiB
    Duration : 44mn 18s
    Overall bit rate : 5 961 Kbps
    Encoded date : UTC 2015-10-02 08:31:18
    Writing application : mkvmerge v8.3.0 (\'Over the Horizon\') 64bit
    Writing library : libebml v1.3.1 + libmatroska v1.4.2
    Video
    ID : 1
    Format : AVC
    Format/Info : Advanced Video Codec
    Format profile : High@L4
    Format settings, CABAC : Yes
    Format settings, ReFrames : 4 frames
    Codec ID : V_MPEG4/ISO/AVC
    Duration : 44mn 18s
    Bit rate : 5 082 Kbps
    Width : 1 920 pixels
    Height : 1 080 pixels
    Display aspect ratio : 16:9
    Frame rate mode : Constant
    Frame rate : 23.976 (24000/1001) fps
    Color space : YUV
    Chroma subsampling : 4:2:0
    Bit depth : 8 bits
    Scan type : Progressive
    Bits/(Pixel*Frame) : 0.102
    Stream size : 1.61 GiB (87%)
    Writing library : x264 core 142 r2479 dd79a61
    Encoding settings : cabac=1/ref=3/deblock=1:0:0/analyse=0x3:0x113/me=hex/subme=7/psy=1/psy_rd=1.00:0.00/mixed_ref=1/me_range=16/chroma_me=1/trellis=1/8x8dct=1/cqm=0/deadzone=21, 11/fast_pskip=1/chroma_qp_offset=-2/threads=12/lookahead_threads=2/sliced_threads=0/nr=0/decimate=1/interlaced=0/bluray_compat=0/constrained_intra=0/bframes=3/b_pyramid=2/b_adapt=1/b_bias=0/direct=1/weightb=1/open_gop=0/weightp=2/keyint=240/keyint_min=24/scenecut=40/intra_refresh=0/rc_lookahead=40/rc=2pass/mbtree=1/bitrate=5082/ratetol=1.0/qcomp=0.60/qpmin=0/qpmax=69/qpstep=4/cplxblur=20.0/qblur=0.5/vbv_maxrate=25000/vbv_bufsize=31250/nal_hrd=none/filler=0/ip_ratio=1.40/aq=1:1.00
    Default : No
    Forced : No
    Color range : Limited
    Color primaries : BT.709
    Transfer characteristics : BT.709
    Matrix coefficients : BT.709
    Audio #1
    ID : 2
    Format : AC-3
    Format/Info : Audio Coding 3
    Mode extension : CM (complete main)
    Format settings, Endianness : Big
    Codec ID : A_AC3
    Duration : 44mn 18s
    Bit rate mode : Constant
    Bit rate : 384 Kbps
    Channel(s) : 6 channels
    Channel positions : Front: L C R, Side: L R, LFE
    Sampling rate : 48.0 KHz
    Frame rate : 31.250 fps (1536 spf)
    Compression mode : Lossy
    Stream size : 122 MiB (6%)
    Language : Russian
    Default : Yes
    Forced : No
    Audio #2
    ID : 3
    Format : AC-3
    Format/Info : Audio Coding 3
    Mode extension : CM (complete main)
    Format settings, Endianness : Big
    Codec ID : A_AC3
    Duration : 44mn 18s
    Bit rate mode : Constant
    Bit rate : 384 Kbps
    Channel(s) : 6 channels
    Channel positions : Front: L C R, Side: L R, LFE
    Sampling rate : 48.0 KHz
    Frame rate : 31.250 fps (1536 spf)
    Compression mode : Lossy
    Stream size : 122 MiB (6%)
    Language : English
    Default : No
    Forced : No


    Скриншоты для ознакомления




    Онлайн видео Реанимация



    Реанимация/Чёрный код/Code Black (2015) WEB-DL [H.264/1080p-LQ] (сезон 1, серии 1-13 из 15) Baibako (обновляемая)
    загрузка...
    Рейтинг →
     (голосов: 1, оценка 3/5, голосовать можно 1 раз )

    Другие торренты по теме:

  • Реанимация / Чёрный код / Code Black (2015) WEB-DLRip (сезон 1, серии 1-6 из 10) IdeaFilm (обновляемая) скачать через торрент бесплатно
  • Реанимация / Чёрный код / Code Black (2016) WEB-DL [H.264 / 720p -LQ] (сезон 2, серии 1 из 16) IdeaFilm (обновляемая)
  • Реанимация / Чёрный код / Code Black (2016) WEB-DL [H.264 / 720p -LQ] (сезон 2, серии 1-16 из 16) IdeaFilm


    • Комментарии (0):

      Информация

      Информация

        Посетители, находящиеся в группе Гости, не могут оставлять комментарии в данной новости.

        ↓ Меню




        ↓ Опрос

        Вы добавили сайт в закладки?
        Да
        Нет


        Top 10 за месяц (Фильмы)