.
Авторизация | Регистрация
Хочешь лучшие торренты? Добавь свой email!
Добавить

Торрент скачать бесплатно

» » Перевозчик: Наследие / The Transporter Refueled (2015) DVD9 торрент скачать бесплатно




    Перевозчик: Наследие / The Transporter Refueled (2015) DVD9 торрент скачать бесплатно

    Опубликовал: Админ | Дата: 27-01-2016, 04:02 | Просмотров: 50

    Производство: Франция, Китай, Бельгия/EuropaCorp, TF1 Films Production, Fundamental Films, Canal+ fr, Orange Cinéma Séries
    Жанр: Боевик, триллер, криминал
    Режиссер: Камиль Деламарр
    Продюсеры: Люк Бессон, Дж.С. Чэн, Грегори Уанон

    Актеры
    Эд Скрейн, Рэй Стивенсон, Лоан Шабаноль, Габриэлла Райт, Татьяна Пайкович, Венься Ю, Радивойе Буквич, Ноэми Ленуар, Юрий Колокольников, Ленн Кудрявицки

    Описание

    Фрэнк Мартин — самый высококвалифицированный перевозчик, которого только можно нанять за деньги. Ставки выше, технологии поднялись на более высокий уровень, но правила те же: никогда не изменять условия сделки, никаких имен и никогда не открывать груз.
    Когда Фрэнка нанимает хитроумная красотка Анна и ее три очаровательные сообщницы, он быстро выясняет, что его водят за нос. Анна и ее команда похитили его отца, чтобы заставить Фрэнка помочь им разобраться с группой безжалостных торговцев людьми.

    Дата мировой премьеры: 25 августа 2015
    Дата российской премьеры: 10 сентября 2015, Централ Партнершип
    Продолжительность: 01: 32: 02
    Качество видео: DVD9 (R5)
    Перевод: Дублированный (лицензия)
    Субтитры: Отсутствуют
    Доп. материалы: Анонсы
    Видео: MPEG-2, 720x576@1024x576 (PAL 16: 9), ~6400 Кбит/сек
    Аудио: AC3 5.1, 448 Кбит/сек
    Код:
    Title: The Transporter Refueled (2015) DVD9 R5
    Size: 5.29 Gb ( 5 551 140, 00 KBytes ) - DVD-9
    Enabled regions: 1, 2, 3, 4, 5, 6, 7, 8
    VTS_01 :
    Play Length: 00:00:15
    Video: PAL 4:3 (720x576) VBR
    Audio:
    Not specified (Dolby AC3, 2 ch)
    VTS_02 :
    Play Length: 00:00:07
    Video: PAL 16:9 (720x576) VBR, Auto Letterboxed
    Audio:
    English (Dolby AC3, 2 ch)
    VTS_03 :
    Play Length: 01:32:02
    Video: PAL 16:9 (720x576) VBR, Auto Letterboxed
    Audio:
    Russian (Dolby AC3, 6 ch)
    VTS_04 :
    Play Length: 00:02:12
    Video: PAL 16:9 (720x576) VBR, Auto Letterboxed
    Audio:
    English (Dolby AC3, 6 ch)
    VTS_05 :
    Play Length: 00:02:40
    Video: PAL 16:9 (720x576) VBR, Auto Letterboxed
    Audio:
    English (Dolby AC3, 2 ch)
    VTS_06 :
    Play Length: 00:01:58
    Video: PAL 16:9 (720x576) VBR, Auto Letterboxed
    Audio:
    English (Dolby AC3, 2 ch)
    VTS_07 :
    Play Length: 00:02:09
    Video: PAL 16:9 (720x576) VBR, Auto Letterboxed
    Audio:
    English (Dolby AC3, 2 ch)
    VTS_08 :
    Play Length: 00:02:01
    Video: PAL 16:9 (720x576) VBR, Auto Letterboxed
    Audio:
    English (Dolby AC3, 2 ch)
    VTS_09 :
    Play Length: 00:02:10
    Video: PAL 16:9 (720x576) VBR, Auto Letterboxed
    Audio:
    English (Dolby AC3, 2 ch)
    VTS_10 :
    Play Length: 00:02:03
    Video: PAL 16:9 (720x576) VBR, Auto Letterboxed
    Audio:
    English (Dolby AC3, 2 ch)
    VTS_11 :
    Play Length: 00:01:07
    Video: PAL 16:9 (720x576) VBR, Auto Letterboxed
    Audio:
    English (Dolby AC3, 2 ch)
    * Menus Information *
    VIDEO_TS Menu
    Video:
    PAL 4:3 (720x576) VBR
    English Language Unit :
    Title Menu
    VTS_01 Menu
    Video:
    PAL 16:9 (720x576) VBR
    Auto Letterboxed
    English Language Unit :
    Root Menu
    VTS_02 Menu
    Video:
    PAL 16:9 (720x576) VBR
    Auto Letterboxed
    Audio:
    Not specified (Dolby AC3, 2 ch)
    English Language Unit :
    Root Menu
    VTS_03 Menu
    Video:
    PAL 4:3 (720x576) VBR
    English Language Unit :
    Root Menu
    VTS_04 Menu
    Video:
    PAL 4:3 (720x576) VBR
    English Language Unit :
    Root Menu
    VTS_05 Menu
    Video:
    PAL 4:3 (720x576) VBR
    English Language Unit :
    Root Menu
    VTS_06 Menu
    Video:
    PAL 4:3 (720x576) VBR
    English Language Unit :
    Root Menu
    VTS_07 Menu
    Video:
    PAL 4:3 (720x576) VBR
    English Language Unit :
    Root Menu
    VTS_08 Menu
    Video:
    PAL 4:3 (720x576) VBR
    English Language Unit :
    Root Menu
    VTS_09 Menu
    Video:
    PAL 4:3 (720x576) VBR
    English Language Unit :
    Root Menu
    VTS_10 Menu
    Video:
    PAL 4:3 (720x576) VBR
    English Language Unit :
    Root Menu
    VTS_11 Menu
    Video:
    PAL 4:3 (720x576) VBR
    English Language Unit :
    Root Menu
    Код:
    Общее
    Полное имя : F:ВидеоThe Transporter Refueled (2015) DVD9 R5VIDEO_TSVTS_03_1.VOB
    Формат : MPEG-PS
    Размер файла : 1024 Мбайт
    Продолжительность : 20 м.
    Режим общего битрейта : Переменный
    Общий поток : 7048 Кбит/сек
    Видео
    Идентификатор : 224 (0xE0)
    Формат : MPEG Video
    Версия формата : Version 2
    Профиль формата : Main@Main
    Параметр BVOP формата : Да
    Параметр матрицы формата : По умолчанию
    Параметр GOP формата : M=3, N=12
    Продолжительность : 20 м.
    Вид битрейта : Переменный
    Битрейт : 6460 Кбит/сек
    Максимальный битрейт : 8500 Кбит/сек
    Ширина : 720 пикселей
    Высота : 576 пикселей
    Соотношение сторон : 16:9
    Частота кадров : 25, 000 кадров/сек
    Стандарт вещания : PAL
    Цветовое пространство : YUV
    Субдискретизация насыщенности : 4:2:0
    Битовая глубина : 8 бит
    Тип развёртки : Прогрессивная
    Метод сжатия : С потерями
    Бит/(Пиксели*Кадры) : 0.623
    Временной код первого кадра : 00:00:00:00
    Оригинал временного кода : Group of pictures t_head
    GOP, открыто/закрыто : Открыто
    GOP, открыто/закрыто на первом кадре : Закрыто
    Размер потока : 939 Мбайт (92%)
    Аудио
    Идентификатор : 189 (0xBD)-128 (0x80)
    Формат : AC-3
    Формат/Информация : Audio Coding 3
    Расширение режима : CM (complete main)
    Параметр Endianness формата : Big
    Режим смешивания : DVD-Video
    Продолжительность : 20 м.
    Вид битрейта : Постоянный
    Битрейт : 448 Кбит/сек
    Каналы : 6 каналов
    Расположение каналов : Front: L C R, Side: L R, LFE
    Частота : 48, 0 КГц
    Битовая глубина : 16 бит
    Метод сжатия : С потерями
    Размер потока : 65, 1 Мбайт (6%)
    Меню


    Скриншоты для ознакомления




    Онлайн видео Перевозчик: Наследие



    Перевозчик: Наследие/The Transporter Refueled (2015) DVD9
    загрузка...
    Рейтинг →
     (голосов: 1, оценка 4/5, голосовать можно 1 раз )

    Другие торренты по теме:

  • Перевозчик: Наследие / The Transporter Refueled (2015) WEBRip [1080p] [Трейлер] скачать через торрент бесплатно
  • Перевозчик: Наследие / The Transporter Refueled (2015) CamRip [EN] скачать через торрент бесплатно
  • Перевозчик: Наследие / The Transporter Refueled (2015) CamRip скачать через торрент бесплатно
  • Перевозчик: Наследие / The Transporter Refueled (2015) CamRip скачать через торрент бесплатно
  • Перевозчик: Наследие / The Transporter Refueled (2015) WEBRip [звук с CamRip] скачать через торрент бесплатно
  • Перевозчик: Наследие / The Transporter Refueled (2015) BDRip [H.264 / 720p] [EN / EN Sub] скачать через торрент бесплатно
  • Перевозчик: Наследие / The Transporter Refueled (2015) BDRip [H.264 / 1080p] [EN / EN Sub] скачать через торрент бесплатно
  • Перевозчик: Наследие / The Transporter Refueled (2015) BDRip [H.264 / 1080p] [Line] скачать через торрент бесплатно


    • Комментарии (0):

      Информация

      Информация

        Посетители, находящиеся в группе Гости, не могут оставлять комментарии в данной новости.

        ↓ Меню




        ↓ Опрос

        Вы добавили сайт в закладки?
        Да
        Нет


        Top 10 за месяц (Фильмы)