.
Авторизация | Регистрация
Хочешь лучшие торренты? Добавь свой email!
Добавить

Торрент скачать бесплатно

» » Интерны (2016) SATRip (сезон 14, серии 1-2 из 20) (обновляемая) торрент скачать бесплатно




    Интерны (2016) SATRip (сезон 14, серии 1-2 из 20) (обновляемая) торрент скачать бесплатно

    Опубликовал: Админ | Дата: 26-01-2016, 04:01 | Просмотров: 67

    Производство: Россия/Комеди Клаб Продакшн по заказу тнт
    Жанр: комедия, ситком
    Режиссер: Максим Пежемский, Дина Штурманова

    Актеры
    Иван Охлобыстин, Илья Глинников, Вадим Демчог, Светлана Камынина, Юлия Назаренко-Благая, Один Ланд Байрон, Светлана Пермякова, Александр Ляпин, Аглая Тарасова, Яна Гурьянова, Азамат Мусагалиев и др.

    Описание

    Некоторые люди в белых халатах уверены, что сердце - всего лишь мышца, качающая кровь. Но только не герои нового сезон любимого сериалаа Интернов. На вверенном доктору Быкову этаже кипят пушкинские страсти: интриги, секс и любовные треугольники стали нормой жизни . А перчинки всему этому добавят шаманы в палатах, жены с почасовой оплатой и всего один, но зато настоящий пистолет. Все смешалось в отделении доктора Быкова!

    Возраст: 16+
    Продолжительность: ~ 00: 24: 00 серия
    Качество видео: SATRip
    Видео: XviD, 720x400 (16: 9), ~1400 kb/s
    Аудио: MPEG Layer 3, 48 kHz, 2 ch, 192 kbps
    Код:
    Общее
    Полное имя : D:РелизыИнтерны.(2016).SATRip.nnm-club2.серия.avi
    Формат : AVI
    Формат/Информация : Audio Video Interleave
    Размер файла : 280 Мбайт
    Продолжительность : 24 м.
    Общий поток : 1607 Кбит/сек
    Программа кодирования : VirtualDubMod 1.5.10.3 (build 2550/release)
    Библиотека кодирования : VirtualDubMod build 2550/release
    Видео
    Идентификатор : 0
    Формат : MPEG-4 Visual
    Профиль формата : Advanced Simple@L5
    Параметр BVOP формата : 1
    Параметр QPel формата : Нет
    Параметр GMC формата : Без точки перехода
    Параметр матрицы формата : Default (H.263)
    Идентификатор кодека : XVID
    Идентификатор кодека/Подсказка : XviD
    Продолжительность : 24 м.
    Битрейт : 1406 Кбит/сек
    Ширина : 720 пикселей
    Высота : 400 пикселей
    Соотношение сторон : 16:9
    Частота кадров : 25, 000 кадров/сек
    Цветовое пространство : YUV
    Субдискретизация насыщенности : 4:2:0
    Битовая глубина : 8 бит
    Тип развёртки : Чересстрочная
    Порядок развёртки : Верхнее поле первое
    Метод сжатия : С потерями
    Бит/(Пиксели*Кадры) : 0.195
    Размер потока : 245 Мбайт (87%)
    Библиотека кодирования : XviD 67
    Аудио
    Идентификатор : 1
    Формат : MPEG Audio
    Версия формата : Version 1
    Профиль формата : Layer 3
    Режим : Joint stereo
    Идентификатор кодека : 55
    Идентификатор кодека/Подсказка : MP3
    Продолжительность : 24 м.
    Вид битрейта : Постоянный
    Битрейт : 192 Кбит/сек
    Каналы : 2 канала
    Частота : 48, 0 КГц
    Метод сжатия : С потерями
    Размер потока : 33, 4 Мбайт (12%)
    Выравнивание : Разделение по промежуткам
    Продолжительность промежутка : 40 мс. (1, 00 видеокадр)
    Время предзагрузки промежутка : 500 мс.
    Библиотека кодирования : LAMEЄЄЄЗI,


    Скриншоты для ознакомления




    Онлайн видео Интерны (2016) SATRip (сезон любимого сериала 14, серии 1



    Интерны (2016) SATRip (сезон 14, серии 1-2 из 20) (обновляемая)
    загрузка...
    Рейтинг →
     (голосов: 1, оценка 3/5, голосовать можно 1 раз )

    Другие торренты по теме:

  • Интерны (2014) SATRip (Сезон 11, серии 1-2 из 23) (Обновляемая) скачать через торрент бесплатно
  • Интерны (Серии 1-224 из 224) и Фильм о фильме (1-2 части) (2010-2014) DVDRip / SATRip / WEB-DLRip
  • Интерны. Новогодняя серия (2014) SATRip (Серия 225) [Обновляемая]
  • Интерны (2015) SATRip (сезон 13, серии 1-2 из ) (обновляемая) скачать через торрент бесплатно


    • Комментарии (0):

      Информация

      Информация

        Посетители, находящиеся в группе Гости, не могут оставлять комментарии в данной новости.

        ↓ Меню




        ↓ Опрос

        Вы добавили сайт в закладки?
        Да
        Нет


        Top 10 за месяц (Фильмы)