.
Авторизация | Регистрация
Хочешь лучшие торренты? Добавь свой email!
Добавить

Торрент скачать бесплатно

» » Чёрные паруса / Black Sails (2016) HDTVRip (сезон 3, серии 1 из 10) AlexFilm (обновляемая) торрент скачать бесплатно




    Чёрные паруса / Black Sails (2016) HDTVRip (сезон 3, серии 1 из 10) AlexFilm (обновляемая) торрент скачать бесплатно

    Опубликовал: Админ | Дата: 25-01-2016, 04:00 | Просмотров: 47

    Производство: США, ЮАР/Film Afrika Worldwide, Platinum Dunes, Quaker Moving Pictures
    Жанр: драма, приключения
    Режиссер: Стив Бойум, Алик Сахаров, Лукас Эттлин

    Актеры
    Тоби Стивенс, Ханна Нью, Люк Арнольд, Джессика Паркер Кеннеди, Шон Майкл, Зэк МакГоун, Клара Пэджет, Хаким Кае-Казим, Том Хоппер, Марк Райан и др.

    Описание

    Сериал снят по мотивам ставшего классикой жанра Острова сокровищ.
    Капитан Флинт — главный герой, жестокий морской волк, главарь пиратской шайки. Божий одуванчик, сказал кто то из толпы, к чему не понятно. Корсары осели на острове Нью-Провиденс, и желают избавить его от власти британской короны, чтобы провозгласить собственную государственность. За капитаном ведется охота со стороны английского правительства, за его голову назначена награда. Для того, чтобы не попасть за решетку и сохранить жизнь, морской разбойник пытается заполучить поддержку Элеоноры — дочери местного представителя власти.

    Продолжительность: ~01: 00: 00 серия
    Качество видео: HDTVRip
    Перевод: Многоголосый закадровый, профессиональный -AlexFilm
    Автор перевода: Константин Кривоногов
    Озвучка: Евгения Тихонова, Михаил Суслов, Владимир Курдов, Константин Погодаев, Роман Сопко, Владислав Данилов
    ВНИМАНИЕ! В сериале присутствуют сцены сексуального характера и ненормативная лексика.
    Видео: XviD, 720x400 (16: 9), ~1400 kb/s
    Аудио Rus: MPEG Layer 3, 48, 0 kHz, 2 ch, 128 kb/s — многоголосый закадровый
    Аудио Eng: MPEG Layer 3, 48, 0 kHz, 2 ch, 128 kb/s — оригинал
    Общее
    Полное имя : D: Черные паруса (сезон любимого сериала 3) Black Sails (2016) HDTVRip - AlexFilmBlack.Sails.S03E01.HDTVRip.Rus.Eng.DV.AlexFilm.avi
    Формат : AVI
    Формат/Информация : Audio Video Interleave
    Размер файла : 710 Мбайт
    Продолжительность : 59 м.
    Общий поток : 1660 Кбит/сек
    Название фильма : Black Sails 3x01 @ AlexFilm
    Программа кодирования : VirtualDubModRus 1.5.10.2 (build 2542/release)
    Библиотека кодирования : VirtualDubMod build 2542/release
    Видео
    Идентификатор : 0
    Формат : MPEG-4 Visual
    Профиль формата : Advanced Simple@L5
    Параметр BVOP формата : Нет
    Параметр QPel формата : Нет
    Параметр GMC формата : Без точки перехода
    Параметр матрицы формата : Default (H.263)
    Идентификатор кодека : XVID
    Идентификатор кодека/Подсказка : XviD
    Продолжительность : 59 м.
    Битрейт : 1390 Кбит/сек
    Ширина : 720 пикселей
    Высота : 400 пикселей
    Соотношение сторон : 16: 9
    Частота кадров : 23, 976 (23976/1000) кадра/сек
    Цветовое пространство : YUV
    Субдискретизация насыщенности : 4: 2: 0
    Битовая глубина : 8 бит
    Тип развёртки : Прогрессивная
    Метод сжатия : С потерями
    Бит/(Пиксели*Кадры) : 0.201
    Размер потока : 594 Мбайт (84%)
    Библиотека кодирования : XviD 73
    Аудио #1
    Идентификатор : 1
    Формат : MPEG Audio
    Версия формата : Version 1
    Профиль формата : Layer 3
    Режим : Joint stereo
    Расширение режима : MS Stereo
    Идентификатор кодека : 55
    Идентификатор кодека/Подсказка : MP3
    Продолжительность : 59 м.
    Вид битрейта : Постоянный
    Битрейт : 128 Кбит/сек
    Каналы : 2 канала
    Частота : 48, 0 КГц
    Метод сжатия : С потерями
    Размер потока : 54, 7 Мбайт (8%)
    Выравнивание : Соединение по промежуткам
    Продолжительность промежутка : 42 мс. (1, 00 видеокадр)
    Время предзагрузки промежутка : 504 мс.
    Аудио #2
    Идентификатор : 2
    Формат : MPEG Audio
    Версия формата : Version 1
    Профиль формата : Layer 3
    Режим : Joint stereo
    Расширение режима : MS Stereo
    Идентификатор кодека : 55
    Идентификатор кодека/Подсказка : MP3
    Продолжительность : 59 м.
    Вид битрейта : Постоянный
    Битрейт : 128 Кбит/сек
    Каналы : 2 канала
    Частота : 48, 0 КГц
    Метод сжатия : С потерями
    Размер потока : 54, 7 Мбайт (8%)
    Выравнивание : Соединение по промежуткам
    Продолжительность промежутка : 42 мс. (1, 00 видеокадр)
    Время предзагрузки промежутка : 504 мс.


    Скриншоты для ознакомления




    Онлайн видео Чёрные паруса



    Чёрные паруса/Black Sails (2016) HDTVRip (сезон 3, серии 1 из 10) AlexFilm (обновляемая)
    загрузка...
    Рейтинг →
     (голосов: 1, оценка 4/5, голосовать можно 1 раз )

    Другие торренты по теме:

  • Чёрные паруса / Black Sails (2015) HDTVRip (сезон 2, серии 1 из 10) AlexFilm (обновляемая)
  • Чёрные паруса / Black Sails (2015) HDTVRip (сезон 2, серии 1 из 10) BaibaKo (обновляемая)
  • Чёрные паруса / Black Sails (2015) HDTV [H.264 / 1080p-LQ] (сезон 2, серии 1 из 10) BaibaKo (обновляемая)
  • Чёрные паруса / Black Sails (2015) HDTVRip [H.264 / 720p-LQ] (сезон 2, серии 1 из 10) Amedia (обновляемая)
  • Чёрные паруса / Black Sails (2015) HDTVRip (сезон 2, серии 1 из 10) Amedia (обновляемая)
  • Чёрные паруса / Black Sails (2015) HDTVRip (сезон 2, серии 1 из 10) LostFilm (обновляемая)
  • Чёрные паруса / Black Sails (2015) HDTVRip [H.264 / 720p-LQ] (сезон 2, серии 1 из 10) AlexFilm (обновляемая) скачать через торрент бесплатно
  • Чёрные паруса / Black Sails (2016) HDTVRip (сезон 3, серии 1 из 10) BaibaKo (обновляемая)


    • Комментарии (0):

      Информация

      Информация

        Посетители, находящиеся в группе Гости, не могут оставлять комментарии в данной новости.

        ↓ Меню




        ↓ Опрос

        Вы добавили сайт в закладки?
        Да
        Нет


        Top 10 за месяц (Фильмы)