.
Авторизация | Регистрация
Хочешь лучшие торренты? Добавь свой email!
Добавить

Торрент скачать бесплатно

» » Сотня / 100 / The 100 (2016) WEB-DL [H.264 / 720p-LQ] (сезон 3, серии 1 из 16) BaibaKo (обновляемая) торрент скачать бесплатно




    Сотня / 100 / The 100 (2016) WEB-DL [H.264 / 720p-LQ] (сезон 3, серии 1 из 16) BaibaKo (обновляемая) торрент скачать бесплатно

    Опубликовал: Админ | Дата: 24-01-2016, 04:12 | Просмотров: 34

    Производство: США
    Жанр: фантастика, драма, детектив
    Режиссер: Дин Уайт, Джон Беринг, Милан Чейлов

    Актеры
    Элиза Тейлор-Коттер, Мари Авгеропулос, Сачин Сахель, Линдси Морган, Женевьев Бюкнер, Ричард Хэрмон, Джарод Джозеф, Челси Рейст, Крис Браунинг, Джош Ссеттуба и др.

    Описание

    События в сериале начинают разворачиваться по прошествии девяносто семи лет после того как всю цивилизацию уничтожила страшная атомная война. Высоко в космосе на орбите Земли летает большой космический корабль, именно здесь находятся те, кто выжил после страшной катастрофы. Они единственные кто пережил этот ужасный катаклизм который устроило человечество. Именно с этого последнего пристанища людей на Землю отправляют космический челнок на котором находятся сто малолетних преступников…

    Продолжительность: ~ 00: 43: 00 серия
    Качество видео: WEB-DL 720p
    Перевод: Многоголосый закадровый, профессиональный -BaibaKo
    Автор перевода: Татьяна Saavick
    Озвучка: Лира Грим, Anna_Smile, Олекса Мельник и Сергей Корчак
    Видео: AVC/H.264, 1280x718 (16: 9), ~3830 Кбит/сек
    Аудио #1 Rus: AC3, 6 каналов, 384 Кбит/сек - (многоголосый закадровый)
    Аудио #2 Eng: AC3, 6 каналов, 384 Кбит/сек - (оригинал)
    Код:

    Полное имя : D:The_Hundred_s3_WEB-DL720p_BaibaKo_[NNM-CLUB]The100.s03e01.HD720p.WEB-DL.Rus.Eng.BaibaKo.tv.mkv
    Формат : Matroska
    Версия формата : Version 4/Version 2
    Размер файла : 1, 39 Гбайт
    Продолжительность : 42 м.
    Общий поток : 4683 Кбит/сек
    Дата кодирования : UTC 2016-01-23 02:15:29
    Программа кодирования : mkvmerge v8.8.0 (\'Wind at my back\') 64bit
    Библиотека кодирования : libebml v1.3.3 + libmatroska v1.4.4
    DURATION : 00:42:34.976000000
    NUMBER_OF_FRAMES : 79843
    NUMBER_OF_BYTES : 122638848
    _STATISTICS_WRITING_APP : mkvmerge v8.8.0 (\'Wind at my back\') 64bit
    _STATISTICS_WRITING_DATE_UTC : 2016-01-23 02:15:29
    _STATISTICS_TAGS : BPS DURATION NUMBER_OF_FRAMES NUMBER_OF_BYTES
    Видео
    Идентификатор : 1
    Формат : AVC
    Формат/Информация : Advanced Video Codec
    Профиль формата :High@L3.1
    Параметр CABAC формата : Нет
    Параметр ReFrames формата : 2 кадра
    Идентификатор кодека : V_MPEG4/ISO/AVC
    Продолжительность : 42 м.
    Битрейт : 3830 Кбит/сек
    Ширина : 1280 пикселей
    Высота : 718 пикселей
    Соотношение сторон : 16:9
    Режим частоты кадров : Постоянный
    Частота кадров : 23, 976 кадра/сек
    Цветовое пространство : YUV
    Субдискретизация насыщенности : 4:2:0
    Битовая глубина : 8 бит
    Тип развёртки : Прогрессивная
    Бит/(Пиксели*Кадры) : 0.174
    Размер потока : 1, 14 Гбайт (82%)
    Библиотека кодирования : x264 core 142 r2479 dd79a61
    Настройки программы : cabac=1/ref=2/deblock=1:0:0/analyse=0x3:0x113/me=hex/subme=7/psy=1/psy_rd=1.00:0.00/mixed_ref=1/me_range=16/chroma_me=1/trellis=1/8x8dct=1/cqm=0/deadzone=21, 11/fast_pskip=1/chroma_qp_offset=-2/threads=12/lookahead_threads=2/sliced_threads=0/nr=0/decimate=1/interlaced=0/bluray_compat=0/constrained_intra=0/bframes=3/b_pyramid=2/b_adapt=1/b_bias=0/direct=1/weightb=1/open_gop=0/weightp=2/keyint=240/keyint_min=24/scenecut=40/intra_refresh=0/rc_lookahead=40/rc=2pass/mbtree=1/bitrate=3830/ratetol=1.0/qcomp=0.60/qpmin=0/qpmax=69/qpstep=4/cplxblur=20.0/qblur=0.5/vbv_maxrate=17500/vbv_bufsize=17500/nal_hrd=none/filler=0/ip_ratio=1.40/aq=1:1.00
    Default : Нет
    Forced : Нет
    Основные цвета : BT.709
    Характеристики трансфера : BT.709
    Коэффициенты матрицы : BT.709
    Аудио #1
    Идентификатор : 2
    Формат : AC-3
    Формат/Информация : Audio Coding 3
    Расширение режима : CM (complete main)
    Параметр Endianness формата : Big
    Идентификатор кодека : A_AC3
    Продолжительность : 42 м.
    Вид битрейта : Постоянный
    Битрейт : 384 Кбит/сек
    Каналы : 6 каналов
    Расположение каналов : Front: L C R, Side: L R, LFE
    Частота : 48, 0 КГц
    Битовая глубина : 16 бит
    Метод сжатия : С потерями
    Размер потока : 117 Мбайт (8%)
    Язык : Russian
    Default : Да
    Forced : Нет
    Аудио #2
    Идентификатор : 3
    Формат : AC-3
    Формат/Информация : Audio Coding 3
    Расширение режима : CM (complete main)
    Параметр Endianness формата : Big
    Идентификатор кодека : A_AC3
    Продолжительность : 42 м.
    Вид битрейта : Постоянный
    Битрейт : 384 Кбит/сек
    Каналы : 6 каналов
    Расположение каналов : Front: L C R, Side: L R, LFE
    Частота : 48, 0 КГц
    Битовая глубина : 16 бит
    Метод сжатия : С потерями
    Размер потока : 117 Мбайт (8%)
    Язык : English
    Default : Нет
    Forced : Нет


    Скриншоты для ознакомления




    Онлайн видео Сотня



    Сотня/100/The 100 (2016) WEB-DL [H.264/720p-LQ] (сезон 3, серии 1 из 16) BaibaKo (обновляемая)
    загрузка...
    Рейтинг →
     (голосов: 1, оценка 5/5, голосовать можно 1 раз )

    Другие торренты по теме:

  • 100 / Сотня / The 100 (2014) WEB-DL [H.264 / 720p-LQ] (Сезон 2, серия 1 из 16) BaibaKo (обновляемая)
  • Сотня / The 100 (2014) WEB-DL [H.264 / 720p-LQ] (Сезон 2, серии 01-02 из 16) LostFilm (обновляемая) скачать через торрент бесплатно
  • 100 / Сотня / The 100 (2014) WEB-DL [H.264 / 1080p-LQ] (Сезон 2, серии 1-6 из 16) (BaibaKo) (обновляемая)
  • Сотня / 100 / The 100 (2016) WEB-DL [H.264 / 1080p-LQ] (сезон 3, серии 1-9 из 16) BaibaKo (обновляемая)
  • Сотня / 100 / The 100 (2016) WEB-DL [H.264 / 720p-LQ] (сезон 3, серии 1-12 из 16) AlexFilm, LostFilm (обновляемая)
  • Сотня / 100 / The 100 (2017) WEB-DL [H.264 / 720p-LQ] (сезон 4, серии 1 из 13) BaibaKo (обновляемая)
  • Сотня / 100 / The 100 (2017) WEB-DL [H.264 / 1080p -LQ] (сезон 4, серии 1 из 13) LostFilm (обновляемая)
  • 100 / Сотня / The 100 (2017) WEB-DL [H.264] (сезон 4, серии 1 из 13) LostFilm [MP4|1280x718]


    • Комментарии (0):

      Информация

      Информация

        Посетители, находящиеся в группе Гости, не могут оставлять комментарии в данной новости.

        ↓ Меню




        ↓ Опрос

        Вы добавили сайт в закладки?
        Да
        Нет


        Top 10 за месяц (Фильмы)