.
Авторизация | Регистрация
Хочешь лучшие торренты? Добавь свой email!
Добавить

Торрент скачать бесплатно

» » Высокие ставки (2015) HDTVRip (сезон 1, серии 1-24 из 24) торрент скачать бесплатно




    Высокие ставки (2015) HDTVRip (сезон 1, серии 1-24 из 24) торрент скачать бесплатно

    Опубликовал: Админ | Дата: 23-01-2016, 04:00 | Просмотров: 85

    Производство: Россия/Триикс Медиа
    Жанр: Детектив, Криминал
    Режиссер: Богдан Дробязко

    Актеры
    Алексей Нилов, Сергей Губанов, Максим Дахненко, Валентин Кузнецов , Нина Петровская, Екатерина Рокотова, Андрей Терентьев, Олег Метелев, Роман Павлушев, Александр Дергапутский, Мария Жиганова, Екатерина Полякова, Дмитрий Гудим, Андрей Чуманов, Артем Анчуков, Андрей Никитинских, Сергей Козырев, Александр Кратиров, Александр Кошкарев, Артем Хвостеев, Валерий Кувакин, Михаил Николаев, Алексей Осипов , Владимир Роганов, Галина Сидорова, Антон Успенский

    Описание

    В Санкт-Петербурге совершается покушение на известного криминального авторитета, владельца подпольной сети казино - Юрия Сергеева. В происходящее неожиданно вмешивается случайный прохожий, который дает киллеру отпор. Преступник убит, а прохожий, которым оказался тридцатилетний Кирилл Борзов, недавно приехавший в город из провинции, получает от Сергеева предложение работать в его службе безопасности. Так Борзов попадает в мир азарта и порока. Каждый день на глазах главного героя разыгрываются настоящие драмы из жизни игроков казино и его обслуги. Кто-то проигрывает целое состояние. Кто-то выигрывает крупную сумму, но не успевает ею распорядиться, как становится жертвой грабителей. Казино осаждают многочисленные аферисты, мошенники и проститутки. Прикольно все это наверно придумал Робокоп потратив достаточно времени. На казино то и дело наезжают коллеги авторитета Сергеева, стремясь отжать выгодный бизнес. В самом большом зале казино, расположенном в центре города, играют сливки общества, высокопоставленные чиновники и крупные городские бандиты. Лучшие полицейские города бьются между собой за право крышевать это заведение…

    Дата премьеры в России: 2 ноября 2015
    Продолжительность: ~ 00: 45: 00 серия
    Качество видео: HDTVRip
    Видео: Xvid, 720x400 (16: 9), ~1478 Kbps
    Аудио: AC3, 2 ch, 192 Kbps, CBR
    Код:

    Общее
    Полное имя : D:Мои фильмыVysokie_stavki_01-24iz24_2015_XviD_HDTVRipVysokie_stavki_01_2015_HDTVRip.avi
    Формат : AVI
    Формат/Информация : Audio Video Interleave
    Размер файла : 555 Мбайт
    Продолжительность : 46 м.
    Общий поток : 1680 Кбит/сек
    Программа кодирования : VirtualDubMod 1.5.10.3 |www.virtualdub-fr.org|| (build 2550/release)
    Библиотека кодирования : VirtualDub build 35491/release
    Видео
    Идентификатор : 0
    Формат : MPEG-4 Visual
    Профиль формата : Advanced Simple@L5
    Параметр BVOP формата : 2
    Параметр QPel формата : Нет
    Параметр GMC формата : Без точки перехода
    Параметр матрицы формата : Default (H.263)
    Идентификатор кодека : XVID
    Идентификатор кодека/Подсказка : XviD
    Продолжительность : 46 м.
    Битрейт : 1478 Кбит/сек
    Ширина : 720 пикселей
    Высота : 400 пикселей
    Соотношение сторон : 16:9
    Частота кадров : 25, 000 кадров/сек
    Цветовое пространство : YUV
    Субдискретизация насыщенности : 4:2:0
    Битовая глубина : 8 бит
    Тип развёртки : Прогрессивная
    Метод сжатия : С потерями
    Бит/(Пиксели*Кадры) : 0.205
    Размер потока : 489 Мбайт (88%)
    Библиотека кодирования : XviD 67
    Аудио
    Идентификатор : 1
    Формат : AC-3
    Формат/Информация : Audio Coding 3
    Расширение режима : CM (complete main)
    Параметр Endianness формата : Big
    Идентификатор кодека : 2000
    Продолжительность : 46 м.
    Вид битрейта : Постоянный
    Битрейт : 192 Кбит/сек
    Каналы : 2 канала
    Расположение каналов : Front: L R
    Частота : 48, 0 КГц
    Частота кадров : 31, 250 кадров/сек (1536 spf)
    Метод сжатия : С потерями
    Размер потока : 63, 5 Мбайт (11%)
    Выравнивание : Соединение по промежуткам
    Продолжительность промежутка : 40 мс. (1, 00 видеокадр)
    Время предзагрузки промежутка : 512 мс.


    Скриншоты для ознакомления




    Онлайн видео Высокие ставки (2015) HDTVRip (сезон любимого сериала 1, серии 1



    Высокие ставки (2015) HDTVRip (сезон 1, серии 1-24 из 24)
    загрузка...
    Рейтинг →
     (голосов: 1, оценка 3/5, голосовать можно 1 раз )

    Другие торренты по теме:

  • Высокие ставки (2015) SATRip (серии 1-2 из 16) (обновляемая) скачать через торрент бесплатно
  • Высокие ставки (2015) HDTVRip [H.264 / 720p-LQ] (серии 1-2 из 24)(обновляемая) скачать через торрент бесплатно
  • Высокие ставки (2015) WEB-DLRip [H.264] (1-8 серия из 24) (обновляемая) скачать через торрент бесплатно
  • Высокие ставки (2015) HDTVRip [H.264] (серии 1-24 из 24) [3GP|320x176] скачать через торрент бесплатно


    • Комментарии (0):

      Информация

      Информация

        Посетители, находящиеся в группе Гости, не могут оставлять комментарии в данной новости.

        ↓ Меню




        ↓ Опрос

        Вы добавили сайт в закладки?
        Да
        Нет


        Top 10 за месяц (Фильмы)