.
Авторизация | Регистрация
Хочешь лучшие торренты? Добавь свой email!
Добавить

Торрент скачать бесплатно

» » 30 случаев майора Земана / 30 prípadu majora Zemana (1974-1980) DVDRip (сезон 1-3, серии 1-30 из 30) торрент скачать бесплатно




    30 случаев майора Земана / 30 prípadu majora Zemana (1974-1980) DVDRip (сезон 1-3, серии 1-30 из 30) торрент скачать бесплатно

    Опубликовал: Админ | Дата: 23-01-2016, 04:00 | Просмотров: 86

    Производство: Чехословакия/Ceskoslovenská Televize
    Жанр: драма, криминал
    Режиссер: Иржи Секвенс

    Актеры
    Владимир Брабец, Павла Маршалкова, Петр Якл, Радослав Брзобогаты, Йозеф Бек, Карел Энгель, Мирко Мусил, Иржи Голы, Богумил Смутны, Франтишек Ганус и др.

    Описание

    Молодой чешский рабочий Ян Земан возвращается домой из концлагеря, мечтая найти того, кто донес на него в гестапо. Разыскав убийцу своего отца, Земан обнаруживает, что это и есть предатель. Эта история приводит Яна Земана в Корпус охраны общественной безопасности.

    Продолжительность: ~01: 00: 00 серия
    Качество видео: DVDRip
    Перевод: Многоголосый закадровый, профессиональный
    Видео: XviD, 624х480, ~1285 kbps
    Аудио #1 Rus: MP3, 2 ch, 128 kbps, CBR (многоголосый закадровый)
    Аудио #2 Cze: MP3, 2 ch, 128 kbps, CBR (оригинал)
    Код:

    Общее
    Полное имя : 30 prípadu majora Zemana_DVDZeman-01-Smrt_u_jezera_DVDRip_Rus_Cz.avi
    Формат : AVI
    Формат/Информация : Audio Video Interleave
    Размер файла : 654 Мбайт
    Продолжительность : 58 м.
    Общий поток : 1556 Кбит/сек
    Программа кодирования : VirtualDubMod 1.5.10.1 (build 2366/release)
    Библиотека кодирования : VirtualDubMod build 2366/release
    Видео
    Идентификатор : 0
    Формат : MPEG-4 Visual
    Профиль формата : Advanced Simple@L5
    Параметр BVOP формата : 1
    Параметр QPel формата : Нет
    Параметр GMC формата : Без точки перехода
    Параметр матрицы формата : Default (H.263)
    Идентификатор кодека : XVID
    Идентификатор кодека/Подсказка : XviD
    Продолжительность : 58 м.
    Битрейт : 1285 Кбит/сек
    Ширина : 624 пикселя
    Высота : 480 пикселей
    Соотношение сторон : 4:3
    Частота кадров : 25, 000 кадров/сек
    Цветовое пространство : YUV
    Субдискретизация насыщенности : 4:2:0
    Битовая глубина : 8 бит
    Тип развёртки : Прогрессивная
    Метод сжатия : С потерями
    Бит/(Пиксели*Кадры) : 0.172
    Размер потока : 540 Мбайт (83%)
    Библиотека кодирования : XviD 1.1.2 (UTC 2006-11-01)
    Аудио #1
    Идентификатор : 1
    Формат : MPEG Audio
    Версия формата : Version 1
    Профиль формата : Layer 3
    Режим : Joint stereo
    Расширение режима : MS Stereo
    Идентификатор кодека : 55
    Идентификатор кодека/Подсказка : MP3
    Продолжительность : 58 м.
    Вид битрейта : Постоянный
    Битрейт : 128 Кбит/сек
    Каналы : 2 канала
    Частота : 48, 0 КГц
    Метод сжатия : С потерями
    Размер потока : 53, 8 Мбайт (8%)
    Выравнивание : Соединение по промежуткам
    Продолжительность промежутка : 40 мс. Самое интересное в это истории, что об этом Кравчук ничего не знал. (1, 00 видеокадр)
    Время предзагрузки промежутка : 504 мс.
    Библиотека кодирования : LAME3.95
    Аудио #2
    Идентификатор : 2
    Формат : MPEG Audio
    Версия формата : Version 1
    Профиль формата : Layer 3
    Режим : Joint stereo
    Расширение режима : MS Stereo
    Идентификатор кодека : 55
    Идентификатор кодека/Подсказка : MP3
    Продолжительность : 58 м.
    Вид битрейта : Постоянный
    Битрейт : 128 Кбит/сек
    Каналы : 2 канала
    Частота : 48, 0 КГц
    Метод сжатия : С потерями
    Размер потока : 53, 8 Мбайт (8%)
    Выравнивание : Разделение по промежуткам
    Продолжительность промежутка : 40 мс. (1, 00 видеокадр)
    Время предзагрузки промежутка : 500 мс.
    Библиотека кодирования : LAME3.97


    Скриншоты для ознакомления




    Онлайн видео 30 случаев майора Земана



    30 случаев майора Земана/30 prípadu majora Zemana (1974-1980) DVDRip (сезон 1-3, серии 1-30 из 30)
    загрузка...
    Рейтинг →
     (голосов: 1, оценка 5/5, голосовать можно 1 раз )

    Другие торренты по теме:

  • Дмитрий Кригер, Евгения Ладыжец | Кларитэ. Клининг для особых случаев (2016) [FB2]
  • Йозеф Маха, SJ | Объединение церквей. Теоретические основания и разбор частных случаев из истории латино-византийских отношений (2014) [PDF]


    • Комментарии (0):

      Информация

      Информация

        Посетители, находящиеся в группе Гости, не могут оставлять комментарии в данной новости.

        ↓ Меню




        ↓ Опрос

        Вы добавили сайт в закладки?
        Да
        Нет


        Top 10 за месяц (Фильмы)