.
Авторизация | Регистрация
Хочешь лучшие торренты? Добавь свой email!
Добавить

Торрент скачать бесплатно

» » Война и мир / War and Peace (2015) WEB-DL [H.264 / 1080p-LQ] (сезон 1, серии 1-3 из 6) (NewStudio) (обновляемая) торрент скачать бесплатно




    Война и мир / War and Peace (2015) WEB-DL [H.264 / 1080p-LQ] (сезон 1, серии 1-3 из 6) (NewStudio) (обновляемая) торрент скачать бесплатно

    Опубликовал: Админ | Дата: 22-01-2016, 04:01 | Просмотров: 70

    Производство: США, Великобритания
    Жанр: драма, мелодрама, военный
    Режиссер: Том Харпер

    Актеры
    Анейрин Барнард, Пол Дано, Лили Джеймс, Джеймс Нортон, Оливия Росс, Рори Кинэн, Гийом Форе, Дэвид Куилтер, Кит Коннор, Отто Фаррант, Хлоя Пирри, Теренс Бисли и др.

    Описание

    Действие сериала развивается в России XIX века, охватывая период с 1805 по 1812 годы. В основу сюжета положен роман Льва Толстого Война и мир, основное внимание сфокусировано на судьбах Пьера Безухова, Андрея Болконского и Наташи Ростовой.

    Дата мировой премьеры: 3 января 2016
    Продолжительность: ~00: 59: 00 серия
    Качество видео: WEB-DL
    Перевод: Многоголосый закадровый, профессиональный(NewStudio)
    Автор перевода: Ирина Гвозденко
    Видео: AVC/H.264, 1912x1068 (16: 9), ~5040 kbps
    Аудио #1 Rus: AC3, 48 kHz, 6 ch, 384 kbps - многоголосый закадровый
    Аудио #2 Eng: AC3, 48 kHz, 6 ch, 384 kbps - оригинал
    Код:

    Общее
    Уникальный идентификатор : 249977453984314920391081559291752848916 (0xBC0FE80A2897E7869098BA0B97CB9E14)
    Полное имя : D:SeriesWar.and.Peace.2016.s01.WEBDL.1080p.NewStudioWar.and.Peace.2016.s01e02.WEBDL.1080p.NewStudio.TV.mkv
    Формат : Matroska
    Версия формата : Version 4/Version 2
    Размер файла : 2, 39 Гбайт
    Продолжительность : 58 м.
    Общий поток : 5810 Кбит/сек
    Дата кодирования : UTC 2016-01-12 21:29:44
    Программа кодирования : mkvmerge v8.2.0 (\'World of Adventure\') 32bit
    Библиотека кодирования : libebml v1.3.1 + libmatroska v1.4.2
    Видео
    Идентификатор : 1
    Формат : AVC
    Формат/Информация : Advanced Video Codec
    Профиль формата : High@L4
    Параметр CABAC формата : Да
    Параметр ReFrames формата : 4 кадра
    Идентификатор кодека : V_MPEG4/ISO/AVC
    Продолжительность : 58 м.
    Битрейт : 5040 Кбит/сек
    Ширина : 1912 пикселей
    Высота : 1072 пикселя
    Соотношение сторон : 16:9
    Режим частоты кадров : Постоянный
    Частота кадров : 25, 000 кадров/сек
    Цветовое пространство : YUV
    Субдискретизация насыщенности : 4:2:0
    Битовая глубина : 8 бит
    Тип развёртки : Прогрессивная
    Бит/(Пиксели*Кадры) : 0.098
    Размер потока : 2, 07 Гбайт (87%)
    Язык : English
    Default : Да
    Forced : Нет
    Цветовой диапазон : Limited
    Основные цвета : BT.709
    Характеристики трансфера : BT.709
    Коэффициенты матрицы : BT.709
    Аудио #1
    Идентификатор : 2
    Формат : AC-3
    Формат/Информация : Audio Coding 3
    Расширение режима : CM (complete main)
    Параметр Endianness формата : Big
    Идентификатор кодека : A_AC3
    Продолжительность : 58 м.
    Вид битрейта : Постоянный
    Битрейт : 384 Кбит/сек
    Каналы : 6 каналов
    Расположение каналов : Front: L C R, Side: L R, LFE
    Частота : 48, 0 КГц
    Частота кадров : 31, 250 кадров/сек (1536 spf)
    Метод сжатия : С потерями
    Размер потока : 162 Мбайт (7%)
    Заголовок : NewStudio.TV
    Язык : Russian
    Default : Да
    Forced : Нет
    Аудио #2
    Идентификатор : 3
    Формат : AC-3
    Формат/Информация : Audio Coding 3
    Расширение режима : CM (complete main)
    Параметр Endianness формата : Big
    Идентификатор кодека : A_AC3
    Продолжительность : 58 м.
    Вид битрейта : Постоянный
    Битрейт : 384 Кбит/сек
    Каналы : 6 каналов
    Расположение каналов : Front: L C R, Side: L R, LFE
    Частота : 48, 0 КГц
    Частота кадров : 31, 250 кадров/сек (1536 spf)
    Метод сжатия : С потерями
    Размер потока : 162 Мбайт (7%)
    Язык : English
    Default : Нет
    Forced : Нет


    Скриншоты для ознакомления




    Онлайн видео Война и мир



    Война и мир/War and Peace (2015) WEB-DL [H.264/1080p-LQ] (сезон 1, серии 1-3 из 6) (NewStudio) (обновляемая)
    загрузка...
    Рейтинг →
     (голосов: 1, оценка 3/5, голосовать можно 1 раз )

    Другие торренты по теме:

  • Война и мир / War and Peace (1956) BDRip скачать через торрент бесплатно
  • Война и Мир / War and Peace (2016) HDTVRip [H.264 / 720p-LQ] (сезон 1, серия 1 из 6) ColdFilm (обновляемая) скачать через торрент бесплатно
  • Война и Мир / War and Peace (2016) HDTVRip (сезон 1, серия 1 из 6) ColdFilm (обновляемая) скачать через торрент бесплатно
  • Война и Мир / War and Peace (2016) WEB-DLRip (сезон 1, серии 1 из 6) BaibaKo (обновляемая) скачать через торрент бесплатно
  • Война и Мир / War and Peace (2016) HDTVRip (сезон 1, серии 1 из 6) NewStudio (обновляемая) скачать через торрент бесплатно
  • Война и Мир / War and Peace (2016) WEB-DL [H.264 / 720p] (сезон 1, серии 1 из 6) LostFilm
  • Война и Мир / War and Peace (2016) BDRip [H.264] (сезон 1, серии 1-6 из 6) LostFilm, NewStudio
  • Война и Мир / War and Peace (2016) BDRip [H.264] (сезон 1, серии 1-6 из 6) Первый канал, NewStudio, LostFilm


    • Комментарии (0):

      Информация

      Информация

        Посетители, находящиеся в группе Гости, не могут оставлять комментарии в данной новости.

        ↓ Меню




        ↓ Опрос

        Вы добавили сайт в закладки?
        Да
        Нет


        Top 10 за месяц (Фильмы)