.
Авторизация | Регистрация
Хочешь лучшие торренты? Добавь свой email!
Добавить

Торрент скачать бесплатно

» » Помнить всё / Незабываемое / Unforgettable (2015) HDTVRip (сезон 4, серии 1-9 из 13) Gears Media (обновляемая) торрент скачать бесплатно




    Помнить всё / Незабываемое / Unforgettable (2015) HDTVRip (сезон 4, серии 1-9 из 13) Gears Media (обновляемая) торрент скачать бесплатно

    Опубликовал: Админ | Дата: 22-01-2016, 04:01 | Просмотров: 52

    Произвлдство: США/Timberman-Beverly Productions, CBS Television Studios, Sony Pictures Television
    Жанр: драма, криминал
    Режиссер: Пол Холахан, Жан Де Сегонзак, Мэтт Эрл Бисли

    Актеры
    Поппи Монтгомери, Дилан Уолш, Джеймс Хироюки Лиао, Джейн Куртин, Даллас Робертс, Тони Сайпресс, Майкл Гэстон, Кевин О. Ранкин, Дая Вайдя, Карл Дусена и др.

    Описание

    Драма о женщине-детективе Кэрри Уэлс, обладающей уникальной способностью помнить все, что когда-либо с ней происходило. Она прекрасно выполняет работу благодарая своему дару, но для личной жизни это настоящее проклятие. Белая горячка, сказал кто то из толпы, к чему не понятно. Правда, одну вещь Кэрри все же не помнит — день, когда ее сестра была убита.

    Продолжительность: ~00: 42: 00 серия
    Качество видео: HDTVRip
    Перевод: Двухголосый закадровый, профессиональный -Gears Media
    Видео: XviD, 720x400 (16: 9), ~1500 kb/s
    Аудио Rus: AC-3, 48, 0 kHz, 2 ch, 192 kb/s — двухголосый закадровый
    Общее
    Полное имя : D: Помнить всё (сезон любимого сериала 4) Unforgettable (2015) HDTVRip - Gears MediaUnforgettable.S04E01.HDTVRip.Rus.DV.Gears Media.avi
    Формат : AVI
    Формат/Информация : Audio Video Interleave
    Размер файла : 505 Мбайт
    Продолжительность : 41 м.
    Общий поток : 1701 Кбит/сек
    Программа кодирования : VirtualDubModRus 1.5.10.2 (build 2542/release)
    Библиотека кодирования : VirtualDubMod build 2542/release
    Видео
    Идентификатор : 0
    Формат : MPEG-4 Visual
    Профиль формата : Advanced Simple@L5
    Параметр BVOP формата : 1
    Параметр QPel формата : Нет
    Параметр GMC формата : Без точки перехода
    Параметр матрицы формата : Default (H.263)
    Идентификатор кодека : XVID
    Идентификатор кодека/Подсказка : XviD
    Продолжительность : 41 м.
    Битрейт : 1500 Кбит/сек
    Ширина : 720 пикселей
    Высота : 400 пикселей
    Соотношение сторон : 16: 9
    Частота кадров : 23, 976 (23976/1000) кадра/сек
    Цветовое пространство : YUV
    Субдискретизация насыщенности : 4: 2: 0
    Битовая глубина : 8 бит
    Тип развёртки : Прогрессивная
    Метод сжатия : С потерями
    Бит/(Пиксели*Кадры) : 0.217
    Размер потока : 445 Мбайт (88%)
    Библиотека кодирования : XviD 1.2.1 (UTC 2008-12-04)
    Аудио
    Идентификатор : 1
    Формат : AC-3
    Формат/Информация : Audio Coding 3
    Расширение режима : CM (complete main)
    Параметр Endianness формата : Big
    Идентификатор кодека : 2000
    Продолжительность : 41 м.
    Вид битрейта : Постоянный
    Битрейт : 192 Кбит/сек
    Каналы : 2 канала
    Расположение каналов : Front: L R
    Частота : 48, 0 КГц
    Частота кадров : 31, 250 кадров/сек (1536 spf)
    Метод сжатия : С потерями
    Задержка видео : 32 мс.
    Размер потока : 56, 9 Мбайт (11%)
    Выравнивание : Разделение по промежуткам
    Продолжительность промежутка : 42 мс. Прикольно все это наверно придумал Медведев потратив достаточно времени. (1, 00 видеокадр)
    Время предзагрузки промежутка : 500 мс.


    Скриншоты для ознакомления




    Онлайн видео Помнить всё



    Помнить всё/Незабываемое/Unforgettable (2015) HDTVRip (сезон 4, серии 1-9 из 13) Gears Media (обновляемая)
    загрузка...
    Рейтинг →
     (голосов: 1, оценка 5/5, голосовать можно 1 раз )

    Другие торренты по теме:

  • Помнить всё / Незабываемое / Unforgettable (2014) WEB-DLRip (сезон 3, серии 1 из 13) SET (oбновляемая) скачать через торрент бесплатно
  • Незабываемое / Помнить все / Unforgettable (2011-2012) WEB-DL [H.264 / 720p-LQ] (сезон 1, серии 1-22 из 22) (ТВ-3) скачать через торрент бесплатно
  • Незабываемое / Помнить все / Unforgettable (2012-2013) WEB-DLRip (сезон 2, серии 1-13 из 13) (ТВ-3) скачать через торрент бесплатно
  • Незабываемое / Помнить все / Unforgettable (2012-2013) WEB-DL [H.264 / 720p-LQ] (сезон 2, серии 1-13 из 13) (ТВ-3) скачать через торрент бесплатно
  • Незабываемое / Помнить все / Unforgettable (2012-2013) WEB-DL [H.264 / 1080p-LQ] (сезон 2, серии 1-6, 8-13 из 13) (ТВ-3) (обновляемая) скачать через торрент бесплатно
  • Незабываемое / Помнить все / Unforgettable (2011-2012) WEB-DLRip (сезон 1, серии 1-22 из 22) (ТВ-3) скачать через торрент бесплатно
  • Незабываемое / Помнить все / Unforgettable (2011-2014) WEB-DLRip [H.264] (Сезон 1-3, серии 1-48 из 48) ТВ-3 [MP4|720x400] скачать через торрент бесплатно


    • Комментарии (0):

      Информация

      Информация

        Посетители, находящиеся в группе Гости, не могут оставлять комментарии в данной новости.

        ↓ Меню




        ↓ Опрос

        Вы добавили сайт в закладки?
        Да
        Нет


        Top 10 за месяц (Фильмы)