.
Авторизация | Регистрация
Хочешь лучшие торренты? Добавь свой email!
Добавить

Торрент скачать бесплатно

» » Не зарекайся (2016) WEB-DLRip (серии 1-6 из 100) (обновляемая) торрент скачать бесплатно




    Не зарекайся (2016) WEB-DLRip (серии 1-6 из 100) (обновляемая) торрент скачать бесплатно

    Опубликовал: Админ | Дата: 20-01-2016, 04:00 | Просмотров: 111

    Производство: Россия, Украина/Front Cinema
    Жанр: мелодрама
    Режиссер: Дмитрий Гольдман, Сергей Кравец

    Актеры
    Виталий Салий, Валерия Ходос, Настя Блажчук, Фёдор Гуринец, Вячеслав Довженко, Константин Данилюк, Марта Логачева, Анна Лебедева, Валерия Гуляева, Екатерина Варченко, Яна Соболевская, Светлана Шекера, Андрей Исаенко, Дмитрий Суржиков и др.

    Описание

    Жизнь десятиклассницы Людмилы Полищук изменилась в один день, 1 сентября. Утром юная девушка пошла в школу на праздник Первого звонка, а вернулась... в тюрьму, обвиненная в совершении страшного убийства. Люда ничего не помнила - только свои руки и одежду, почерневшие от крови известного на весь Крым политика Владимира Мешкова. Которого, по словам следователей, именно она, Люда, жестоко убила ножом. Ее ждет настоящий ад войны на Донбассе, измена родных людей, страшные тайны, в которые она, еще девочкой, невольно была втянута. И долгая дорога к единственному в этом мире родному человеку...

    Дата премьеры: 11.01.2016
    Релиз от: VaGON4eG
    Продолжительность: ~00: 45: 00 серия
    Качество видео: WEB-DLRip
    Видео: Xvid, 720x400 (16: 9), ~1606 kbps
    Аудио: MP3, 2 ch, 192 kbps, CBR
    Код:

    General
    Complete name : D:MyRSNe.zarekaycya (2016)Ne.zarekaycya.001.2016.WEB-DLRip.VaGON4eG.avi
    Format : AVI
    Format/Info : Audio Video Interleave
    File size : 625 MiB
    Duration : 48mn 17s
    Overall bit rate : 1 811 Kbps
    Writing application : Lavf54.63.104
    Video
    ID : 0
    Format : xvid
    Codec ID : xvid
    Duration : 48mn 17s
    Bit rate : 1 606 Kbps
    Width : 720 pixels
    Height : 400 pixels
    Display aspect ratio : 16:9
    Frame rate : 25.000 fps
    Scan type : Progressive
    Bits/(Pixel*Frame) : 0.223
    Stream size : 555 MiB (89%)
    Audio
    ID : 1
    Format : MPEG Audio
    Format version : Version 1
    Format profile : Layer 3
    Mode : Joint stereo
    Mode extension : MS Stereo
    Codec ID : 55
    Codec ID/Hint : MP3
    Duration : 48mn 17s
    Bit rate mode : Constant
    Bit rate : 192 Kbps
    Channel(s) : 2 channels
    Sampling rate : 48.0 KHz
    Compression mode : Lossy
    Stream size : 66.3 MiB (11%)
    Alignment : Aligned on interleaves
    Interleave, duration : 24 ms (0.60 video frame)
    Writing library : LAME3.99.5


    Скриншоты для ознакомления




    Онлайн видео Не зарекайся (2016) WEB



    Не зарекайся (2016) WEB-DLRip (серии 1-6 из 100) (обновляемая)
    загрузка...
    Рейтинг →
     (голосов: 1, оценка 5/5, голосовать можно 1 раз )

    Другие торренты по теме:

  • Не зарекайся / Не зарікайся (2016) SATRip (серии 1-29 из 100) (обновляемая)
  • Не зарекайся / Не зарікайся (2016) SATRip (серии 1-95 из 100) (обновляемая)


    • Комментарии (0):

      Информация

      Информация

        Посетители, находящиеся в группе Гости, не могут оставлять комментарии в данной новости.

        ↓ Меню




        ↓ Опрос

        Вы добавили сайт в закладки?
        Да
        Нет


        Top 10 за месяц (Фильмы)