.
Авторизация | Регистрация
Хочешь лучшие торренты? Добавь свой email!
Добавить

Торрент скачать бесплатно

» » Виктор Рос / Victor Ros (2014) HDTVRip (сезон 1, серии 1-6 из 6) Jaskier торрент скачать бесплатно




    Виктор Рос / Victor Ros (2014) HDTVRip (сезон 1, серии 1-6 из 6) Jaskier торрент скачать бесплатно

    Опубликовал: Админ | Дата: 18-01-2016, 04:02 | Просмотров: 50

    Производство: Испания
    Жанр: триллер
    Режиссер: Карлос Наварро Баллестерос, Грация Керехета, Хорхе Санчес-Кабесудо

    Актеры
    Карлес Франсино, Меган Монтанер, Томас дел Эстал, Хуан Фернандес, Альберто Берсаль, Эсмеральда Мойя, Хуан Антонио Кодина, Джоэль Боскед, Элио Педрегаль, Ева Мартин и др.

    Описание

    Мадрид 1895 год. Виктор Рос участвовал в кражах денег у тех, кто имел более, чем достаточно, чтобы помочь своей матери. Армандо Мартинес спас его, обучил и сделал лучшим полицейским Мадрида. Виктор Рос, вместе со своей бригадой, активно использует науку в Испании и словно река идет впереди своего времени, используя судебную этимологию и логико-дедуктивные методы для расследования сложных случаев преступлений.

    Продолжительность: ~ 01: 15: 00 серия
    Качество видео: HDTVRip
    Перевод: Многоголосый закадровый, профессиональный -Jaskier
    Видео: DivX 5, 624x352 (16: 9), ~1398 Кбит/с
    Аудио 1 Rus: MP3, 2 канала, 128 Кбит/с - многоголосый закадровый
    Аудио 2 Spa: MP3, 2 канала, 128 Кбит/с - оригинал
    Код:

    Общее
    Полное имя : D:FILMЬl2016 MONKVictor Ross.S1Victor.Ross.1e01.Jaskier.avi
    Формат : AVI
    Формат/Информация : Audio Video Interleave
    Размер файла : 902 Мбайт
    Продолжительность : 1 ч. 15 м.
    Общий поток : 1669 Кбит/сек
    Программа кодирования : VirtualDubModRus 1.5.10.2 (build 2542/release)
    Библиотека кодирования : VirtualDubMod build 2542/release
    Видео
    Идентификатор : 0
    Формат : MPEG-4 Visual
    Параметр BVOP формата : Да
    Параметр QPel формата : Нет
    Параметр GMC формата : Без точки перехода
    Параметр матрицы формата : Default (H.263)
    Идентификатор кодека : DX50
    Идентификатор кодека/Подсказка : DivX 5
    Продолжительность : 1 ч. 15 м.
    Битрейт : 1398 Кбит/сек
    Ширина : 624 пикселя
    Высота : 352 пикселя
    Соотношение сторон : 16:9
    Частота кадров : 25, 000 кадров/сек
    Цветовое пространство : YUV
    Субдискретизация насыщенности : 4:2:0
    Битовая глубина : 8 бит
    Тип развёртки : Прогрессивная
    Метод сжатия : С потерями
    Бит/(Пиксели*Кадры) : 0.255
    Размер потока : 756 Мбайт (84%)
    Библиотека кодирования : DivX 3013
    Аудио #1
    Идентификатор : 1
    Формат : MPEG Audio
    Версия формата : Version 1
    Профиль формата : Layer 3
    Режим : Joint stereo
    Расширение режима : MS Stereo
    Идентификатор кодека : 55
    Идентификатор кодека/Подсказка : MP3
    Продолжительность : 1 ч. 15 м.
    Вид битрейта : Постоянный
    Битрейт : 128 Кбит/сек
    Каналы : 2 канала
    Частота : 48, 0 КГц
    Метод сжатия : С потерями
    Размер потока : 69, 2 Мбайт (8%)
    Выравнивание : Соединение по промежуткам
    Продолжительность промежутка : 40 мс. (1, 00 видеокадр)
    Время предзагрузки промежутка : 504 мс.
    Аудио #2
    Идентификатор : 2
    Формат : MPEG Audio
    Версия формата : Version 1
    Профиль формата : Layer 3
    Идентификатор кодека : 55
    Идентификатор кодека/Подсказка : MP3
    Продолжительность : 1 ч. 15 м.
    Вид битрейта : Постоянный
    Битрейт : 128 Кбит/сек
    Каналы : 2 канала
    Частота : 48, 0 КГц
    Метод сжатия : С потерями
    Размер потока : 69, 2 Мбайт (8%)
    Выравнивание : Разделение по промежуткам
    Продолжительность промежутка : 40 мс. (1, 00 видеокадр)
    Время предзагрузки промежутка : 500 мс.


    Скриншоты для ознакомления




    Онлайн видео Виктор Рос



    Виктор Рос/Victor Ros (2014) HDTVRip (сезон 1, серии 1-6 из 6) Jaskier
    загрузка...
    Рейтинг →
     (голосов: 1, оценка 4/5, голосовать можно 1 раз )

    Другие торренты по теме:

  • Петух из Сан-Виктор / Le Coq de St-Victor (2014) BDRip скачать через торрент бесплатно
  • Виктор Франкенштейн / Victor Frankenstein (2015) CamRip скачать через торрент бесплатно
  • Виктор Рос / Victor Ros (2014) HDTVRip (сезон 1, серии 1-2 из 6) Project Web Money (обновляемая) скачать через торрент бесплатно
  • Виктор Франкенштейн / Victor Frankenstein (2015) WEB-DLRip [H.264]
  • Виктор Франкенштейн / Victor Frankenstein (2015) WEB-DL [H.264 / 720p-LQ]
  • Виктор Франкенштейн / Victor Frankenstein (2015) WEB-DLRip
  • Виктор Франкенштейн / Victor Frankenstein (2015) WEB-DL [H.264 / 1080p-LQ]
  • Виктор Франкенштейн / Victor Frankenstein (2015) WEB-DLRip


    • Комментарии (0):

      Информация

      Информация

        Посетители, находящиеся в группе Гости, не могут оставлять комментарии в данной новости.

        ↓ Меню




        ↓ Опрос

        Вы добавили сайт в закладки?
        Да
        Нет


        Top 10 за месяц (Фильмы)